Teddy Wilson - Teddy Wilson and the Dutch Swing College Band (1976/2019) [Official Digital Download 24/96]

Posted By: Pisulik
Teddy Wilson - Teddy Wilson and the Dutch Swing College Band (1976/2019) [Official Digital Download 24/96]

Teddy Wilson - Teddy Wilson and the Dutch Swing College Band (1976/2019)
FLAC (tracks) 24-bit/96 kHz | Time - 38:45 minutes | 713 MB
Studio Master, Official Digital Download | Artwork: Front cover

For several decades, the Dutch Swing College Band was one of Europe's top regular groups, able to play both Dixieland and swing with equal skill. This LP contains some full band selections (including a Dixieland-ish "Riverboat Shuffle"), combo numbers with the band's two clarinetists, solos, and features for pianist Teddy Wilson with the rhythm section. This celebratory occasion (thus far only available on LP) resulted in some highly enjoyable music that deserves to be reissued on CD.

Tracklist:

01. On The Sunny Side Of The Street
02. Basin Street Blues
03. Undecided
04. Limehouse Blues
05. Riverboat Shuffle
06. Time On My Hands
07. Poor Butterfly
08. I'm In The Market For You

foobar2000 1.3.7 / Dynamic Range Meter 1.1.1
log date: 2020-01-27 03:14:27

––––––––––––––––––––––––––––––––––––––––
Analyzed: Teddy Wilson / Teddy Wilson and the Dutch Swing College Band
––––––––––––––––––––––––––––––––––––––––

DR Peak RMS Duration Track
––––––––––––––––––––––––––––––––––––––––
DR12 -1.18 dB -17.55 dB 4:46 01-On The Sunny Side Of The Street
DR10 -1.17 dB -13.23 dB 6:00 02-Basin Street Blues
DR11 -1.18 dB -14.39 dB 3:07 03-Undecided
DR11 -1.18 dB -14.70 dB 5:27 04-Limehouse Blues
DR11 -1.17 dB -14.82 dB 7:07 05-Riverboat Shuffle
DR8 -1.18 dB -11.58 dB 3:27 06-Time On My Hands
DR11 -1.18 dB -16.36 dB 3:47 07-Poor Butterfly
DR12 -1.18 dB -16.62 dB 5:07 08-I'm In The Market For You
––––––––––––––––––––––––––––––––––––––––

Number of tracks: 8
Official DR value: DR11

Samplerate: 96000 Hz
Channels: 2
Bits per sample: 24
Bitrate: 2438 kbps
Codec: FLAC
================================================================================


All thanks go to the original releaser