Tags
Language
Tags

VA - The Sound of Jazz (1957/2014)

Posted By: v3122
VA - The Sound of Jazz (1957/2014)

VA - The Sound of Jazz (1957/2014)
DSD128 2.0 (5,6 MHz/1 Bit) | ~ 1.66 Gb | Official Digital Download
or 24-bit/96 kHz | Flac(Image + Cue) > 375 Mb
or 24-bit/44.1 kHz | Flac(Image + Cue) > 218 Mb
High Definition Tape Transfers | Big Band, Swing, Bop, Cool Jazz

~ Count Basie with the All-Stars, Red Allen with the All-Stars, Jimmy Giuffre Trio

VA - The Sound of Jazz (1957/2014):

Tracklist:

01. Count Basie with the All-Stars - Dickie's Dream
02. Red Allen with the All-Stars - Wild Man Blues
03. Red Allen with the All-Stars - Rosetta
04. Jimmy Giuffre Trio - The Train And The River

Recording Info: Aired on Sunday, December 8, 1957, at 5 p.m. Eastern Time
Live from CBS Studio 58, the Town Theater at 851 Ninth Avenue in New York City
Transferred from a Columbia 2-track tape


foobar2000 1.6.5 / Замер динамического диапазона (DR) 1.1.1
Дата отчёта: 2021-08-21 17:03:22

––––––––––––––––––––––––––––––––––––––––
Анализ: Count Basie with the All-Stars / The Sound of Jazz (1)
Jimmy Giuffre Trio / The Sound of Jazz (2)
Red Allen with the All-Stars / The Sound of Jazz (3-4)
––––––––––––––––––––––––––––––––––––––––

DR Пики RMS Продолжительность трека
––––––––––––––––––––––––––––––––––––––––
DR11 -7.84 дБ -22.27 дБ 5:40 01-DICKIE’S DREAM
DR11 -8.16 дБ -24.68 дБ 4:50 04-THE TRAIN AND THE RIVER
DR11 -8.24 дБ -23.15 дБ 4:53 02-WILD MAN BLUES
DR11 -7.83 дБ -22.62 дБ 5:01 03-ROSETTA
––––––––––––––––––––––––––––––––––––––––

Количество треков: 4
Реальные значения DR: DR11

Частота: 5644800 Гц / Частота PCM: 176400 Гц
Каналов: 2
Разрядность: 1
Битрейт: 11290 кбит/с
Кодек: DSD128


Count Basie in my Blog

Download VA - The Sound of Jazz (1957/2014):