Torgeir Waldemar - Love (2020) [Official Digital Download]

Posted By: Pisulik
Torgeir Waldemar - Love (2020) [Official Digital Download]

Torgeir Waldemar - Love (2020)
FLAC (tracks) 24-bit/48 kHz | Time - 46:52 minutes | 582 MB
Studio Master, Official Digital Download | Artwork: Front cover

After releasing one furious, political album and an introspective, existential one, Torgeir Waldemar concluded that the world hadn’t improved too much. In turbulent times, where walls are erected and hate and xenophobia seems widespread, what should be the main message for the new record? The answer was simple, almost banal – the most important thing we have is one another – love.

Following the success of his two previous albums, the melancholy Torgeir Waldemar (2014) and the loud, fuzz-drenched No Offending Borders (2017) Waldemar has established himself at the very forefront of Norwegian rock and roll troubadours. For the mini-album Jamais Vu (2018), he combined the two personas, stripping down the rock songs from the second album, while rocking up the acoustic songs from the debut. There’s a common thread running through Waldemar’s music, where the new album Love is the obvious continuation – rocking, but not as rough, loud but with more focus.

On the record, Waldemar says: «Love is the driving force behind all our actions. But love isn’t necessarily beautiful or pleasant – it contains too much – everything from self-destruction to crimes of passion. Vi need to take care of one another, but also the world around us. We have been acting out of love, even if it’s love of money or status. As a consequence, the ocean is dying and the forests are burning. If this is the way of showing future generations what love is… Love requires commitment, and also has consequences.

Everyone who’s experienced Torgeir Waldemar live, knows that he fronts a powerful orchestra, effortlessly mixing seventies hard rock, psychedelic jams and groovy americana. It is this band-feel he wanted to replicate on Love – while at the same time relaying the lyrics, message and heart that he’s known for.

Inspired by the Brian Wilson song «Love and Mercy» – in which Wilson describes a wicked world and on the chorus sings «love and mercy, that’s what you need tonight, love and mercy to you and your friends tonight» – Waldemar landed on the title. On Love Waldemar is more ambitious than ever before with a message of unity and the music to match.

Tracklist:

1. Intro (1:21)
2. Leaf in the Wind (8:25)
3. Contagious Smile (5:30)
4. The Devil Beats His Wife (Interlude) (0:39)
5. Truncated Souls (7:51)
6. Meeting the Indians (1:23)
7. Heart and Gold (7:06)
8. Black Ocean (14:42)

foobar2000 1.3.7 / Dynamic Range Meter 1.1.1
log date: 2020-01-17 11:47:58

––––––––––––––––––––––––––––––––––––––––
Analyzed: Torgeir Waldemar / Love
––––––––––––––––––––––––––––––––––––––––

DR Peak RMS Duration Track
––––––––––––––––––––––––––––––––––––––––
DR11 -6.96 dB -23.08 dB 1:21 01-Intro
DR10 -0.14 dB -11.39 dB 8:25 02-Leaf in the Wind
DR10 -0.17 dB -12.31 dB 5:30 03-Contagious Smile
DR7 -1.46 dB -21.22 dB 0:39 04-The Devil Beats His Wife (Interlude)
DR9 -0.22 dB -11.68 dB 7:51 05-Truncated Souls
DR10 -3.16 dB -16.82 dB 1:23 06-Meeting the Indians
DR9 -0.17 dB -10.80 dB 7:06 07-Heart and Gold
DR9 -0.16 dB -11.77 dB 14:42 08-Black Ocean
––––––––––––––––––––––––––––––––––––––––

Number of tracks: 8
Official DR value: DR9

Samplerate: 48000 Hz
Channels: 2
Bits per sample: 24
Bitrate: 1740 kbps
Codec: FLAC
================================================================================


All thanks go to the original releaser