Amedeo Tommasi - Amedeo Tommasi (2021) [Official Digital Download 24/192]

Posted By: El Misha
Amedeo Tommasi - Amedeo Tommasi (2021) [Official Digital Download 24/192]

Amedeo Tommasi - Amedeo Tommasi (Amedeo Tommasi Orchestrato E Diretto da Stefano Mastruzzi) (2021)
FLAC (tracks) 24-bit/192.0 kHz | Time - 36:23 | 1.2 GB
Studio Master, Official Digital Download | Artwork: Front cover

Amedeo Tommasi was an Italian pianist and composer. He specialized in the composition of music for films. Tommasi started his career as a trombonist for a jazz band in Bologna. He gained notoriety in Italy for his performances on the radio show La coppa di jazz in 1960. The following year, he performed in the Sanremo Music Festival and received the First Prize at the Festival Bled in Slovenia. In the years following, he made recordings with Chet Baker, Bobby Jaspar, René Thomas, Buddy Collette, Conte Candoli, and Jacques Pelzer. In the early 1970s, he began composing music for films. In the film The Legend of 1900, he composed each of the recordings and also had a cameo appearance as a pianist. He also appeared in the 2010 documentary Pupi Avati, ieri oggi domani, directed by Claudio Costa.



Tracklist:

01. Inexperience (Amedeo Tommasi Orchestrato E Diretto da Stefano Mastruzzi)
02. La casa dalle finestre che ridono (Amedeo tommasi orchestrato e diretto da stefano mastruzzi)
03. Milena (Amedeo tommasi orchestrato e diretto da stefano mastruzzi)
04. You and Me (Amedeo Tommasi Orchestrato E Diretto da Stefano Mastruzzi)
05. Over the Rainbow (Amedeo Tommasi Orchestrato E Diretto da Stefano Mastruzzi)
06. Ballad for Michelin (Amedeo Tommasi Orchestrato E Diretto da Stefano Mastruzzi)
07. Camilla (Amedeo tommasi orchestrato e diretto da stefano mastruzzi)
08. Martina (Amedeo tommasi orchestrato e diretto da stefano mastruzzi)
09. Polka Dots and Moonbeams (Amedeo Tommasi Orchestrato E Diretto da Stefano Mastruzzi)
10. Magic Waltz (Amedeo Tommasi Orchestrato E Diretto da Stefano Mastruzzi)
11. Danny's Blues (Amedeo Tommasi Orchestrato E Diretto da Stefano Mastruzzi)

foobar2000 1.4 / Dynamic Range Meter 1.1.1
log date: 2021-06-15 08:53:07

––––––––––––––––––––––––––––––––––––––––
Analyzed: Amedeo Tommasi / Amedeo Tommasi
––––––––––––––––––––––––––––––––––––––––

DR Peak RMS Duration Track
––––––––––––––––––––––––––––––––––––––––
DR10 -0.65 dB -13.71 dB 2:48 01-Inexperience (Amedeo Tommasi Orchestrato E Diretto da Stefano Mastruzzi)
DR10 -0.74 dB -14.88 dB 3:53 02-La casa dalle finestre che ridono (Amedeo tommasi orchestrato e diretto da stefano mastruzzi)
DR13 -2.27 dB -19.75 dB 2:22 03-Milena (Amedeo tommasi orchestrato e diretto da stefano mastruzzi)
DR11 -1.62 dB -14.90 dB 3:31 04-You and Me (Amedeo Tommasi Orchestrato E Diretto da Stefano Mastruzzi)
DR10 -0.58 dB -14.38 dB 3:38 05-Over the Rainbow (Amedeo Tommasi Orchestrato E Diretto da Stefano Mastruzzi)
DR12 -2.32 dB -19.80 dB 2:55 06-Ballad for Michelin (Amedeo Tommasi Orchestrato E Diretto da Stefano Mastruzzi)
DR11 -0.87 dB -15.09 dB 3:50 07-Camilla (Amedeo tommasi orchestrato e diretto da stefano mastruzzi)
DR11 -1.11 dB -15.23 dB 2:50 08-Martina (Amedeo tommasi orchestrato e diretto da stefano mastruzzi)
DR13 -1.94 dB -19.66 dB 5:01 09-Polka Dots and Moonbeams (Amedeo Tommasi Orchestrato E Diretto da Stefano Mastruzzi)
DR10 -0.67 dB -14.13 dB 2:08 10-Magic Waltz (Amedeo Tommasi Orchestrato E Diretto da Stefano Mastruzzi)
DR13 -0.75 dB -17.41 dB 3:32 11-Danny's Blues (Amedeo Tommasi Orchestrato E Diretto da Stefano Mastruzzi)
––––––––––––––––––––––––––––––––––––––––

Number of tracks: 11
Official DR value: DR11

Samplerate: 192000 Hz
Channels: 2
Bits per sample: 24
Bitrate: 4188 kbps
Codec: FLAC
================================================================================



Thanks to the Original customer!