Anders Boson Jazz Ensemble - Kärleken (2021) [Official Digital Download]

Posted By: El Misha
Anders Boson Jazz Ensemble - Kärleken (2021) [Official Digital Download]

Anders Boson Jazz Ensemble - Kärleken (2021)
FLAC (tracks) 24-bit/44.10 kHz | Time - 37:20 | 409 MB
Studio Master, Official Digital Download | Artwork: Front cover

Anders Boson was previously a member of the Gothenburg pop soul band Fibes Oh Fibes !, which from 2003 and a few years onwards praised and updated the 1980s synth soul in a particularly wonderful way. After two ballad-oriented albums with a more jazzy touch, he has finally ended up in pure jazz with this sympathetically soft-swinging album.
With her bright voice and lyrical trumpet playing, it is of course difficult not to think of Chet Baker, but if you let go of both that and the comparisons you can make with Amanda Ginsburg, there are both elaborate songs and solid musicality to discover. Everything nicely arranged by Erik Dahl.
A mischievous blues - titled Bluesen - I could easily have done without, but otherwise the melancholic coziness is strongly present both in Boson's own songs and the album's two covers, The World Outside (a sped up and subtitled version of the Carla Bley song Lawns) and the folk rockers Bon Ivers Blindsided.
I can also report that the solo performances of saxophonist Axel Mårdsjö, trombonist Jakob Sollerman, pianist Simon Westman and bassist Olli Rantala are consistently high class.



Tracklist:

01 - Anders Boson Jazz Ensemble - Världen utanför (3:52)
02 - Anders Boson Jazz Ensemble - My Witness of Love (5:28)
03 - Anders Boson Jazz Ensemble - Bluesen (4:55)
04 - Anders Boson Jazz Ensemble - Kärleken (5:58)
05 - Anders Boson Jazz Ensemble - Alvis (6:17)
06 - Anders Boson Jazz Ensemble - Blindsided (5:37)
07 - Anders Boson Jazz Ensemble - Anten (5:16)

foobar2000 1.4 / Dynamic Range Meter 1.1.1
log date: 2021-02-23 19:44:20

––––––––––––––––––––––––––––––––––––––––
Analyzed: Anders Boson Jazz Ensemble / Kärleken
––––––––––––––––––––––––––––––––––––––––

DR Peak RMS Duration Track
––––––––––––––––––––––––––––––––––––––––
DR10 -1.58 dB -13.92 dB 3:52 01-Världen utanför
DR10 -1.58 dB -14.15 dB 5:28 02-My Witness of Love
DR10 -1.58 dB -14.28 dB 4:55 03-Bluesen
DR10 -1.58 dB -14.86 dB 5:58 04-Kärleken
DR12 -1.58 dB -15.62 dB 6:17 05-Alvis
DR10 -1.58 dB -14.67 dB 5:37 06-Blindsided
DR9 -1.58 dB -14.61 dB 5:16 07-Anten
––––––––––––––––––––––––––––––––––––––––

Number of tracks: 7
Official DR value: DR10

Samplerate: 44100 Hz
Channels: 2
Bits per sample: 24
Bitrate: 1540 kbps
Codec: FLAC
================================================================================



Thanks to the Original customer!