Tags
Language
Tags

Bruce Springsteen & The E Street Band - 1978-07-01 - Berkeley Community Theater, Berkeley, CA (2021) [Digital Download 24/192]

Posted By: delpotro
Bruce Springsteen & The E Street Band - 1978-07-01 - Berkeley Community Theater, Berkeley, CA (2021) [Digital Download 24/192]

Bruce Springsteen & The E Street Band - 1978-07-01 - Berkeley Community Theater, Berkeley, CA (2021)
FLAC (tracks) 24-bit/192 kHz | Front Cover | Time - 157:53 minutes | 4,95 GB
Heartland Rock, Classic Rock | Label: nugs net, Official Digital Download

The earliest show on the Darkness tour to be released in the Archive Series, Berkeley 7/1/78 bristles with energy on songs like "Darkness On The Edge Of Town" and "Adam Raised A Cain," along with "Night" and "For You," both of which featured in the early months of the '78 tour. A memorable encore opens with Bruce's definitive solo-piano arrangement of "The Promise", the first live version of the song to be released from 1978, and offers only the second E Street Band performance ever of "Because The Night," with alternate lyrics.

Tracklist:
Set One:
01. Badlands (5:35)
02. Night (3:05)
03. Spirit In The Night (8:03)
04. Darkness On The Edge Of Town (6:10)
05. For You (6:17)
06. The Promised Land (5:49)
07. Prove It All Night (9:33)
08. Racing in the Street (8:1)1
09. Thunder Road (6:08)
10. Jungleland (10:37)

Set Two:
01. Paradise By The "C" (4:43)
02. Fire (3:03)
03. Adam Raised a Cain (5:26 )
04. Mona - She's The One (12:20)
05. Growin' Up (7:39)
06. Backstreets (13:59)
07. Rosalita (Come Out Tonight) (10:43)

Encore:
01. The Promise (7:08)
02. Born to Run (5:33)
03. Because the Night (7:09)
04. Quarter To Three (10:44)

foobar2000 1.4.1 / Dynamic Range Meter 1.1.1
log date: 2021-07-27 11:03:57

––––––––––––––––––––––––––––––––––––––––
Analyzed: Bruce Springsteen & The E Street Band / 1978/07/01 Berkeley, CA
––––––––––––––––––––––––––––––––––––––––

DR Peak RMS Duration Track
––––––––––––––––––––––––––––––––––––––––
DR7 -0.02 dB -8.65 dB 5:35 01-Badlands
DR6 -0.04 dB -7.47 dB 3:05 02-Night
DR8 -0.01 dB -10.24 dB 8:03 03-Spirit In The Night
DR8 -0.08 dB -11.58 dB 6:10 04-Darkness on the Edge of Town
DR7 -0.05 dB -8.97 dB 6:17 05-For You
DR7 -0.04 dB -8.67 dB 5:49 06-The Promised Land
DR7 -0.04 dB -9.63 dB 9:33 07-Prove It All Night
DR11 -0.06 dB -15.65 dB 8:11 08-Racing in the Street
DR7 -0.05 dB -9.13 dB 6:08 09-Thunder Road
DR8 -0.03 dB -11.56 dB 10:37 10-Jungleland
DR7 -0.07 dB -9.60 dB 4:43 01-Paradise By The "C"
DR10 -0.14 dB -13.78 dB 3:03 02-Fire
DR6 -0.02 dB -7.76 dB 5:26 03-Adam Raised a Cain
DR7 -0.03 dB -10.67 dB 12:19 04-Mona - She's The One
DR7 -0.01 dB -11.28 dB 7:39 05-Growin' Up
DR6 0.00 dB -10.38 dB 13:59 06-Backstreets
DR7 -0.04 dB -9.09 dB 10:43 07-Rosalita (Come Out Tonight)
DR11 -0.45 dB -16.97 dB 7:08 01-The Promise
DR6 -0.04 dB -8.14 dB 5:33 02-Born to Run
DR6 0.00 dB -9.15 dB 7:09 03-Because the Night
DR6 -0.04 dB -9.32 dB 10:44 04-Quarter To Three
––––––––––––––––––––––––––––––––––––––––

Number of tracks: 21
Official DR value: DR7

Samplerate: 192000 Hz
Channels: 2
Bits per sample: 24
Bitrate: 4751 kbps
Codec: FLAC
================================================================================


Thanks to the Original customer!