Tags
Language
Tags

bvdub - Epilogues for the End of the Sky (2017) [Official Digital Download]

Posted By: delpotro
bvdub - Epilogues for the End of the Sky (2017) [Official Digital Download]

bvdub - Epilogues for the End of the Sky (2017)
FLAC (tracks) 24-bit/44,1 kHz | Front Cover | Time - 75:36 minutes | 670 MB
Electronic, Ambient | Label: Glacial Movement, Official Digital Download

bvdub is Brock Van Wey, a native of the San Francisco Bay Area. Devoting his life to the SF rave scene in the late 80's, he began to DJ and promote his own deep house and ambient events in 1991, rising 10 years before a self-imposed exile to China in 2001 to escape the state of a scene he could no longer accept.

"He began to produce his own music in 2006, first releasing in 2007 on Night Drive Music. Soon after, his overtly emotional sound spread to Styrax, Millions of Moments, Southern Outpost, and Meanwhile, before a natural and gradual shift to his trademark ambient onslaughts saw him call n5MD, Glacial Movements, AY, Darla, echospace [detroit], Kompakt, his own Quietus Recordings, and many more home.

Now returned to his hometown, he has continued his prolific output, with a string of self-released CD and digital-only releases, a monolithic rework of Vortexual [element seven] for echopace [detroit], and his newest, most wistful and hypnotic work yet - his return to Glacial Movements, with Epilogues for the End of the Sky. Brock has also released numerous ambient projects under his given name, deep house as Earth House Hold, and drum & bass as East Of Oceans."

Tracklist:
1. On Deaf Hearts Your Prayers They Fall (10:29)
2. With Broken Wings and Giants Tall (09:15)
3. Sparkling Legions Turn to Black (11:27)
4. Your Painted Armor Aches to Crack (08:32)
5. Clouds Besiege What You Remain (09:57)
6. Footsteps Fade If Not Your Pain (10:06)
7. Love Is Never Asking Why (08:43)
8. It All Ends with the Coming Sky (07:07)

foobar2000 1.3.7 / Dynamic Range Meter 1.1.1
log date: 2017-04-15 13:04:33

––––––––––––––––––––––––––––––––––––––––
Analyzed: bvdub / Epilogues for the End of the Sky
––––––––––––––––––––––––––––––––––––––––

DR Peak RMS Duration Track
––––––––––––––––––––––––––––––––––––––––
DR10 -1.89 dB -15.99 dB 10:29 01-On Deaf Hearts Your Prayers They Fall
DR10 0.00 dB -13.88 dB 9:15 02-With Broken Wings and Giants Tall
DR10 0.00 dB -14.09 dB 11:27 03-Sparkling Legions Turn to Black
DR11 -0.29 dB -15.69 dB 8:32 04-Your Painted Armor Aches to Crack
DR10 0.00 dB -14.27 dB 9:57 05-Clouds Besiege What You Remain
DR12 0.00 dB -14.91 dB 10:06 06-Footsteps Fade If Not Your Pain
DR11 -0.30 dB -14.52 dB 8:43 07-Love Is Never Asking Why
DR10 -0.45 dB -14.36 dB 7:07 08-It All Ends with the Coming Sky
––––––––––––––––––––––––––––––––––––––––

Number of tracks: 8
Official DR value: DR10

Samplerate: 44100 Hz
Channels: 2
Bits per sample: 24
Bitrate: 1205 kbps
Codec: FLAC
================================================================================


Thanks to the Original customer!