Tags
Language
Tags

bvdub - Ten Times the World Lied (2020) [Official Digital Download]

Posted By: delpotro
bvdub - Ten Times the World Lied (2020) [Official Digital Download]

bvdub - Ten Times the World Lied (2020)
FLAC (tracks) 24-bit/44,1 kHz | Front Cover | Time - 78:44 minutes | 785 MB
Electronic, Ambient | Label: Glacial Movements, Official Digital Download

Brock Van Wey, aka bvdub, is undoubtedly among the greatest and most prolific artists in the world, whose music directly affects the heart, soul, and human mind. His soundscapes spread in the air as if they were delicate and slow movements of the northern lights, or the wind that blows on the flowers of the trees in spring. There is something divine in bvdub's music, and Glacial Movements is more than honored to welcome another great work for the world, Ten Times the World Lied, his fifth album on the Roman label, as he nears forty overall. Ten songs impossible to describe in words, but which will breach the heart of all those who lose themselves in this sonic wonder. Completely devoid of vocals for the first time ever, Brock spins but layers upon layers of divine clouds, gradually darkening, gradually closing in - expertly mastered by the artist himself, culminating in arguably the best album he has composed for Glacial Movements to date.

Tracklist:
1. Not Yours to Build (07:52)
2. Not Yours to Say (07:52)
3. Not Yours to Give (07:52)
4. Not Yours to Know (07:53)
5. Not Yours to See (07:53)
6. Not Yours to Find (07:53)
7. Not Yours to Keep (07:52)
8. Not Yours to Take (07:53)
9. Not Yours to Rule (07:52)
10. Not Yours to Break (07:53)

foobar2000 1.4.1 / Dynamic Range Meter 1.1.1
log date: 2020-12-13 11:32:18

––––––––––––––––––––––––––––––––––––––––
Analyzed: Bvdub / Ten Times the World Lied
––––––––––––––––––––––––––––––––––––––––

DR Peak RMS Duration Track
––––––––––––––––––––––––––––––––––––––––
DR4 -0.20 dB -8.45 dB 7:52 01-Not Yours to Build
DR4 -0.20 dB -7.86 dB 7:52 02-Not Yours to Say
DR5 -0.20 dB -7.54 dB 7:52 03-Not Yours to Give
DR5 -0.20 dB -7.32 dB 7:53 04-Not Yours to Know
DR5 -0.20 dB -8.96 dB 7:53 05-Not Yours to See
DR5 -0.20 dB -8.08 dB 7:53 06-Not Yours to Find
DR3 -0.20 dB -6.77 dB 7:52 07-Not Yours to Keep
DR6 -0.20 dB -10.11 dB 7:53 08-Not Yours to Take
DR5 -0.20 dB -8.37 dB 7:52 09-Not Yours to Rule
DR4 -0.20 dB -7.95 dB 7:53 10-Not Yours to Break
––––––––––––––––––––––––––––––––––––––––

Number of tracks: 10
Official DR value: DR5

Samplerate: 44100 Hz
Channels: 2
Bits per sample: 24
Bitrate: 1377 kbps
Codec: FLAC
================================================================================


Thanks to the Original customer!