Tags
Language
Tags

bvdub - Wrath & Apathy (2020) [Official Digital Download 24/48]

Posted By: delpotro
bvdub - Wrath & Apathy (2020) [Official Digital Download 24/48]

bvdub - Wrath & Apathy (2020)
FLAC (tracks) 24-bit/48 kHz | Front Cover | Time - 52:39 minutes | 848 MB
Electronic, Downtempo, Dub Techno, Ambient | Label: n5MD, Official Digital Download

A decades-long disciple of Haruki Murakami, Brock Van Wey, better known as bvdub, has more than once melded the ideas of Murakami's magical realism and its underlying teachings on loneliness, isolation, and the human condition into the fabric of his own work.

In a time, place, and set of circumstances that saw the hallucinatory set of events in Murakami's Kafka on the Shore overlap Van Wey's own already oft-chimerical “reality,” art and life traversed beyond imitation, their lines disappearing altogether. A time when life spun cruelly and beautifully out of control. A chaos which demanded as much stoic apathy as righteous, magnificent wrath.

This is the story of that time and place.

Tracklist:
1. Wrath & Apathy (18:32)
2. Ghosts & Stone (20:13)
3. Green & Blue (20:17)
4. Endurance & Exodus (17:34)

foobar2000 1.4.1 / Dynamic Range Meter 1.1.1
log date: 2020-12-13 11:36:09

––––––––––––––––––––––––––––––––––––––––
Analyzed: Bvdub / Wrath & Apathy
––––––––––––––––––––––––––––––––––––––––

DR Peak RMS Duration Track
––––––––––––––––––––––––––––––––––––––––
DR9 -0.20 dB -12.32 dB 18:32 01-Wrath & Apathy
DR8 -0.20 dB -12.04 dB 20:13 02-Ghosts & Stone
DR8 -0.20 dB -11.12 dB 20:17 03-Green & Blue
DR7 -0.20 dB -9.76 dB 17:34 04-Endurance & Exodus
––––––––––––––––––––––––––––––––––––––––

Number of tracks: 4
Official DR value: DR8

Samplerate: 48000 Hz
Channels: 2
Bits per sample: 24
Bitrate: 1561 kbps
Codec: FLAC
================================================================================


Thanks to the Original customer!