Tags
Language
Tags

CTM & August Rosenbaum - Celeste (2021) [Official Digital Download]

Posted By: delpotro
CTM & August Rosenbaum - Celeste (2021) [Official Digital Download]

CTM & August Rosenbaum - Celeste (2021)
FLAC (tracks) 24-bit/44,1 kHz | Front Cover | Time - 38:06 minutes | 386 MB
Art Pop, Female Vocal | Label: Posh Isolation, Official Digital Download

On the occasion of the exhibition Celeste at Copenhagen Contemporary, the artists and musicians CTM (Cæcilie Trier) and August Rosenbaum present their new album of the same name with Posh Isolation. The exhibition is an immersive installation structured in acts that has been created with the artists Lea Guldditte Hestelund and Ea Verdoner. Trier and Rosenbaum's songs and instrumental pieces can be found in the gallery as an element in a hybrid work of sculpture, video, and choreography that explores corporeality and transience. Their album 'Celeste' presents these recordings as a standalone work.

Rosenbaum is an acclaimed pianist and composer based in Copenhagen. He has won two Danish Music Awards for his solo work, and his list of collaborators includes Zeena Parkins, Kim Gordon and Jesper Just. Rosenbaum's work has been commissioned for film and performances at Palais de Tokyo, The Royal Danish Ballet and The Metropolitan Museum of Art. Trier is likewise based in Copenhagen, releasing music under her alias of CTM. Her latest album "Red Dragon" presented an experimental approach to both songcraft and production that quietly captured critical acclaim. As a revered cellist, vocalist and composer, Trier has been involved in a wide array of projects and collaborations across genres and disciplines.

A suite of twelve pieces comprise the album 'Celeste.' Each piece interlocks with another, and together it can be thought of as a prism through which the work's materiality is both conceptualised and felt. Having developed the sound material with the objects and surfaces in the exhibition, and phrasing the work with the movement and tactility of the space itself in mind, 'Celeste' both renders the exhibition aurally and illustrates some of the sensuous qualities that can be found within it. Tones generated by striking and manipulating the stones within the installation are the starting point for some of the pieces, for example. Project onto these processes a poetic and philosophical meditation on value and runaway existential motifs and one starts to understand the themes around temporality and anthropomorphism that haunt every gentle stroke that has gone into 'Celeste.'

Though the instrumentation—predominantly cello, accordion, and piano—is articulated clearly across the album, the resonances found within and around each instrument feels just as descriptive as the plaintive though curious melodies that they deliver. Cadences are toyed with through the album too, prompting a tricky sense of duration and teasing the listener to focus on these carefully stoked ambiences. Between the medley of acoustic instruments and digital treatments, Trier's supernatural vocals linger. The lyrics give snapshots of characters and beings that drift from focus just as they enter, often ambivalently.

Detached from the gallery, 'Celeste' is a truly mesmerising work that is hard to place in any one category. It straddles many forms just as it presents itself as a whole. The delicate compositions befit the tender themes, making it an engrossing parallel to its namesake installation.

Tracklist:
1. Cello Permutation (04:09)
2. Masi Stone Duet (02:00)
3. Sarabande (04:45)
4. Angel (04:16)
5. Spider Web (01:14)
6. Wasa Stone Trio (02:15)
7. Crumar (Runway) (01:48)
8. Celeste Song (03:30)
9. Accordeon Permutation (03:59)
10. Sedative (03:40)
11. Even If (02:16)
12. Piano Permutation (Final) (04:15)

foobar2000 1.4.1 / Dynamic Range Meter 1.1.1
log date: 2021-06-27 01:43:14

––––––––––––––––––––––––––––––––––––––––
Analyzed: CTM & August Rosenbaum / Celeste
––––––––––––––––––––––––––––––––––––––––

DR Peak RMS Duration Track
––––––––––––––––––––––––––––––––––––––––
DR10 -0.30 dB -13.94 dB 4:09 01-Cello Permutation 
DR9 -2.76 dB -16.61 dB 2:00 02-Masi Stone Duet
DR7 -0.30 dB -10.79 dB 4:45 03-Sarabande
DR6 -0.30 dB -9.97 dB 4:16 04-Angel
DR7 -0.30 dB -8.76 dB 1:14 05-Spider Web
DR8 -0.30 dB -12.54 dB 2:15 06-Wasa Stone Trio
DR8 -0.30 dB -10.32 dB 1:48 07-Crumar (Runway)
DR8 -0.30 dB -10.53 dB 3:30 08-Celeste Song
DR8 -0.30 dB -11.40 dB 3:59 09-Accordeon Permutation
DR13 -0.30 dB -18.60 dB 3:40 10-Sedative
DR9 0.00 dB -11.50 dB 2:16 11-Even If
DR10 -0.30 dB -14.03 dB 4:15 12-Piano Permutation
––––––––––––––––––––––––––––––––––––––––

Number of tracks: 12
Official DR value: DR9

Samplerate: 44100 Hz
Channels: 2
Bits per sample: 24
Bitrate: 1466 kbps
Codec: FLAC
================================================================================


Thanks to the Original customer!