Tags
Language
Tags

Dalai Lama - Inner World (2020) [Official Digital Download]

Posted By: delpotro
Dalai Lama - Inner World (2020) [Official Digital Download]

Dalai Lama - Inner World (2020)
FLAC (tracks) 24-bit/44,1 kHz | Front Cover | Time - 42:03 minutes | 404 MB
World, Meditative, New Age, Ambient, Spoken Word | Label: Ganden Phodrang, Official Digital Download

The 14th Dalai Lama is marking his 85th birthday by releasing his first ever album. The Tibetan spiritual leader, who celebrates the milestone Monday, hopes "Inner World" – an album of mantras and Buddhist teachings – will provide some tranquility amid the chaos of the coronavirus pandemic and global protests sparked by the death of George Floyd.

"Music has the potential to transcend our differences," he said in a statement. "It can return us to our true nature of warm-heartedness."

He added: "The very purpose of my life is to serve as much as I can. Music can help people in a way that I can't."

"Inner World" was inspired by New Zealand musician Junelle Kunin, who first approached the Dalai Lama about releasing a collection of his mantras set to music in 2015.
The project, which features 11 tracks of ambient, soothing music, was recorded by Kunin and co-produced with her husband Abraham Kunin, who composed the music.

While this may be the Dalai Lama's first bid for the charts, His Holiness is no stranger to the music world.

Tracklist:
1. One of My Favorite Prayers (03:59)
2. The Buddha (04:20)
3. Compassion (03:55)
4. Courage (04:18)
5. Ama La (feat. Anoushka Shankar) (05:31)
6. Healing (03:02)
7. Wisdom (03:19)
8. Purification (03:18)
9. Protection (02:51)
10. Children (02:33)
11. Humanity (04:53)

foobar2000 1.4.1 / Dynamic Range Meter 1.1.1
log date: 2020-07-06 16:11:09

––––––––––––––––––––––––––––––––––––––––
Analyzed: Dalai Lama / Inner World
––––––––––––––––––––––––––––––––––––––––

DR Peak RMS Duration Track
––––––––––––––––––––––––––––––––––––––––
DR9 -0.50 dB -12.05 dB 3:59 01-One of My Favorite Prayers
DR6 -0.50 dB -8.81 dB 4:20 02-The Buddha
DR9 -0.50 dB -12.16 dB 3:55 03-Compassion
DR10 -0.50 dB -14.18 dB 4:18 04-Courage
DR9 -0.50 dB -12.84 dB 5:32 05-Ama La (feat. Anoushka Shankar)
DR9 -0.50 dB -12.50 dB 3:02 06-Healing
DR12 -0.50 dB -15.33 dB 3:19 07-Wisdom
DR12 -0.57 dB -15.62 dB 3:18 08-Purification
DR10 -0.50 dB -14.62 dB 2:51 09-Protection
DR12 -0.50 dB -14.33 dB 2:34 10-Children
DR11 -0.50 dB -14.00 dB 4:54 11-Humanity
––––––––––––––––––––––––––––––––––––––––

Number of tracks: 11
Official DR value: DR10

Samplerate: 44100 Hz
Channels: 2
Bits per sample: 24
Bitrate: 1360 kbps
Codec: FLAC
================================================================================


Thanks to the Original customer!