Dave Douglas - Dizzy Atmosphere: Dizzy Gillespie at Zero Gravity (2020) [Official Digital Download 24/96]

Posted By: delpotro
Dave Douglas - Dizzy Atmosphere: Dizzy Gillespie at Zero Gravity (2020) [Official Digital Download 24/96]

Dave Douglas - Dizzy Atmosphere: Dizzy Gillespie at Zero Gravity (2020)
FLAC (tracks) 24-bit/96 kHz | Front Cover | Time - 63:54 minutes | 1,25 GB
Jazz, Bop, Modern Creative | Label: Greenleaf Music, Official Digital Download

When Dizzy Gillespie put his hat in the ring for President of the United States in 1964, he also offered to be the first African-American astronaut, just in case they couldn’t find anyone else. In making Dizzy Atmosphere, Dave Douglas’s tribute to the great trumpeter, composer and humanist, Douglas said he wanted to explore Dizzy’s experimental and wide open mind as well as the influence of his music.

This album shines a light on the whole legacy of Gillespie, one of America’s finest artists. The original music Douglas wrote swings and shimmers with a grace reminiscent of the great man. Dizzy Atmosphere also contains several imaginative arrangements of Gillespie compositions, including reinterpretations of two key Gillespie tunes “Manteca” and “Pickin’ the Cabbage.” Douglas’s band is also remarkable, featuring fellow trumpeter Dave Adewumi, recent winner of the Carmine Caruso Competition, along with pianist Fabian Almazan, guitarist Matt Stevens, bassist Carmen Rothwell, and drummer Joey Baron.

Like his previous explorations of the influential music of Mary Lou Williams, Wayne Shorter, and Booker Little, this album is sure to inspire listeners to hear the music of Dizzy Gillespie in a new and interesting ways.

Tracklist:
1. Mondrian (05:33)
2. Con Almazan (08:13)
3. Cadillac (06:08)
4. See Me Now (04:35)
5. Manteca (07:43)
6. Pickin' The Cabbage (04:46)
7. Pacific (09:29)
8. Subterfuge (06:23)
9. We Pray (05:24)
10. Woody 'N' You (05:40)

foobar2000 1.4.1 / Dynamic Range Meter 1.1.1
log date: 2020-07-24 13:04:16

––––––––––––––––––––––––––––––––––––––––
Analyzed: Dave Douglas / Dizzy Atmosphere
––––––––––––––––––––––––––––––––––––––––

DR Peak RMS Duration Track
––––––––––––––––––––––––––––––––––––––––
DR9 -0.21 dB -11.33 dB 5:33 01-Mondrian
DR9 -0.21 dB -12.07 dB 8:13 02-Con Almazan
DR10 -0.21 dB -12.81 dB 6:08 03-Cadillac
DR13 -0.23 dB -16.42 dB 4:35 04-See Me Now
DR9 -0.21 dB -11.55 dB 7:43 05-Manteca
DR9 -0.21 dB -12.09 dB 4:46 06-Pickin' The Cabbage
DR11 -0.22 dB -15.49 dB 9:29 07-Pacific
DR9 -0.21 dB -11.17 dB 6:23 08-Subterfuge
DR12 -0.22 dB -15.44 dB 5:24 09-We Pray
DR10 -0.21 dB -12.54 dB 5:40 10-Woody 'N' You
––––––––––––––––––––––––––––––––––––––––

Number of tracks: 10
Official DR value: DR10

Samplerate: 96000 Hz
Channels: 2
Bits per sample: 24
Bitrate: 2747 kbps
Codec: FLAC
================================================================================


Thanks to the Original customer!