Tags
Language
Tags

Elton John - Regimental Sgt. Zippo (Record Store Day 2021 Vinyl) (2021) [24bit/192kHz]

Posted By: delpotro
Elton John - Regimental Sgt. Zippo (Record Store Day 2021 Vinyl) (2021) [24bit/192kHz]

Elton John - Regimental Sgt. Zippo (Record Store Day 2021 Vinyl) (2021)
Vinyl Rip | FLAC (tracks) 24-bit/192 kHz | Time - 39:32 minutes | 854 MB | Artwork - 159 MB
Classic Rock, Soft Rock | Label: Rocket Entertainment, Official Digital Download

After the rapturous reception for Jewel Box, Rocket/UMC/EMI are honoured to announce a strictly limited one-off bringing together of Elton John’s fabled Regimental Sgt Zippo album that was slated for release in 1968, but ultimately shelved.

For one day only, we enter a parallel universe where this, not Empty Sky, would have been Elton John’s debut album.

Recorded at Dick James Studios in Central London between late 1967 and Spring 1968, six of the 12 songs were released on Jewel Box, but five are here in their finished versions for the first time and a debut release for You’ll Be Sorry To See Me Go.

Tracklist:
A1 – When I Was Tealby Abbey
A2 – And The Clock Goes Around
A3 – Sitting Doing Nothing
A4 – Turn To Me
A5 – Angel Tree
A6 – Regimental Sgt. Zippo
B1 – A Dandelion Dies In The Wind
B2 – You'll Be Sorry To See Me Go
B3 – Nina
B4 – Tartan Coloured Lady
B5 – Hourglass
B6 – Watching The Planes Go By

foobar2000 1.4.1 / Dynamic Range Meter 1.1.1
log date: 2021-07-09 17:07:28

––––––––––––––––––––––––––––––––––––––––
Analyzed: Elton John / Regimental Sgt. Zippo [2021 Record Store Day Pressing]
––––––––––––––––––––––––––––––––––––––––

DR Peak RMS Duration Track
––––––––––––––––––––––––––––––––––––––––
DR12 -1.55 dB -15.24 dB 2:38 01-When I Was Tealby ABbey
DR11 -1.11 dB -14.19 dB 3:10 02-And The Clock Goes Around
DR13 -0.08 dB -15.10 dB 2:34 03-Sitting Doing Nothing
DR13 -1.65 dB -15.66 dB 3:21 04-Turn To Me
DR12 -0.93 dB -14.65 dB 2:06 05-Angel Tree
DR11 -0.17 dB -13.71 dB 4:48 06-Regimental Sgt. Zippo
DR11 -3.18 dB -16.00 dB 3:17 07-A Dandelion Dies In The Wind
DR13 -1.04 dB -16.15 dB 2:36 08-You'll Be Sorry To See Me Go
DR11 -0.33 dB -12.36 dB 3:52 09-Nina
DR12 -0.71 dB -15.89 dB 4:12 10-Tartan Coloured Lady
DR12 -0.43 dB -14.55 dB 2:48 11-Hourglass
DR11 -0.62 dB -13.75 dB 4:11 12-Watching The Planes Go By
––––––––––––––––––––––––––––––––––––––––

Number of tracks: 12
Official DR value: DR12

Samplerate: 192000 Hz
Channels: 2
Bits per sample: 24
Bitrate: 3011 kbps
Codec: FLAC
================================================================================


Spin Clean II RCM prewash
VPI 16.5 RCM with Tergi-Kleen
Klaudio Ultrasonic RCM final cleaning
Milty Zerostat 3
VPI Classic 3 / Audio-Technica VM760SLC dual moving-magnet cart / HRX center weight and periphery ring clamp
Lounge LCRMKIII phono stage
Sweet Vinyl SugarCube SC-1 hardware noise removal system
McIntosh MA6850 integrated amp
Apogee Quartet audio interface
AKG K7XX headphones
Focal Alpha 65 powered studio monitors
2017 Intel i7 27” iMac
Adobe Audition CS
FLAC encoded with XLD
Epson 12000XL-GA large-format scanner
Adobe Photoshop / Adobe Acrobat

Thanks to the Original customer!