Tags
Language
Tags

Faithless - All Blessed (Deluxe Edition) (2020/2021) [Official Digital Download]

Posted By:
Faithless - All Blessed (Deluxe Edition) (2020/2021) [Official Digital Download]

Faithless - All Blessed (Deluxe Edition) (2020/2021)
FLAC (tracks) 24-bit/44,1 kHz | Front Cover | Time - 120:11 minutes | 1,36 GB
Electronic, House, Trip-Hop | Label: BMG Rights Management, Official Digital Download

In a history that stretches back some 25 years, Faithless have long occupied a pivotal position in the world of British electronica. Marrying elements of house, trip hop, dub and a songwriting flair into arena filling explosive, euphoric sounds.

Their accomplishments tell their own story: seven Top 10 singles, six Top 10 albums (three at Number 1), a Mercury Prize nomination for their brilliant sophomore album, 1998’s ‘Sunday 8PM’ and their impressive four times Platinum certified ‘Forever Faithless The Greatest Hits’ adding to a career total in excess of 15 million worldwide.

Faithless have graced festival stages the world over, including Glastonbury’s famous pyramid stage twice, headlining Exit, Sziget, Roskilde, V Festival, Rock am Ring & Rock im Park, Rock Werchter, Pinkpop, Ultra, Mad Cool and many more. Globally, they’ve sold out multiple arena runs, with their infamous laser filled, assault on the senses experiences.

It’s been ten years since Faithless’ last studio album ‘The Dance’ entered the charts at #2 yet their music continues to be discovered through international DJ sets and the rise of streaming services. Their 2015 remix album ‘Faithless 2.0’ took them back to the top of the charts yet again with their friends the likes of Avicii, Claptone, Tiesto, Eric Prydz and Armin Van Buuren coming forward to offer fresh perspectives on their fan favourites, ‘We Come 1’, ‘Insomnia’, ‘God is a DJ’ and more. Collaborations have always the hallmark of Faithless’ career, working with Robert Smith of The Cure, Dido and Cat Power to name but a few.

Tracklist:
1. Poetry (feat. Suli Breaks) (03:38)
2. Gains (feat. Suli Breaks) (03:27)
3. I Need Someone (feat. Nathan Ball & Caleb Femi) (04:54)
4. Remember (feat. Suli Breaks & LSK) (07:04)
5. Synthesizer (feat. Nathan Ball) (06:15)
6. My Town (feat. GAIKA) (05:54)
7. What Shall I Do? (04:25)
8. Friendship (02:17)
9. Walk in My Shoes (02:43)
10. All Blessed (04:38)
11. Innadadance (feat. Suli Breaks & Jazzie B) (04:06)
12. Take Your Time (feat. Damien Jurado & Suli Breaks) (06:39)
13. Innadadance (feat. Suli Breaks & Jazzie B) [Meduza Remix] (Edit) (03:11)
14. I Need Someone (feat. Nathan Ball & Caleb Femi) [Alok Remix] (Edit) (03:05)
15. Synthesizer (feat. Nathan Ball) [Maceo Plex Remix] (Edit) (04:47)
16. Innadadance (feat. Suli Breaks & Jazzie B) (Claptone Remix Edit) (03:12)
17. This Feeling (feat. Suli Breaks & Nathan Ball) (Edit) (03:17)
18. I Need Someone (feat. Nathan Ball & Caleb Femi) (Paul Woolford Remix) (03:02)
19. Synthesizer (feat. Nathan Ball) [Patrice Bäumel Remix] (Edit) (03:59)
20. Necesito a alguien (I Need Someone) [feat. Nathan Ball & Mala Rodríguez] (03:04)
21. This Feeling (feat. Suli Breaks & Nathan Ball) (Waze & Odyssey Remix Edit) (03:04)
22. Synthesizer (feat. Nathan Ball) [Butch Remix] (Edit) (04:35)
23. I Need Someone (feat. Nathan Ball & Caleb Femi) [Yotto Remix] (Edit) (03:47)
24. Necesito a alguien (I Need Someone) [feat. Nathan Ball & Mala Rodríguez] (Paul Woolford Remix) (03:01)
25. This Feeling (feat. Suli Breaks & Nathan Ball) (R Plus Remix) (04:44)
26. Synthesizer (feat. Nathan Ball) (Cristoph Remix - Edit) (03:29)
27. Poetry (Jay Hudson Remix;Edit) (03:42)
28. I Need Someone (feat. Nathan Ball) (Blissy Funked Mix) (03:09)
29. Synthesizer (feat. Nathan Ball) (Calvin Logue RemixEdit) (03:50)
30. I Need Someone (feat. Nathan Ball & Caleb Femi) (Acoustic) (03:00)

foobar2000 1.4.1 / Dynamic Range Meter 1.1.1
log date: 2021-08-06 14:20:08

––––––––––––––––––––––––––––––––––––––––
Analyzed: Faithless / All Blessed
––––––––––––––––––––––––––––––––––––––––

DR Peak RMS Duration Track
––––––––––––––––––––––––––––––––––––––––
DR7 -0.22 dB -9.80 dB 3:39 01-Poetry (feat. Suli Breaks)
DR8 -0.17 dB -9.48 dB 3:27 02-Gains (feat. Suli Breaks)
DR7 -0.47 dB -9.10 dB 4:54 03-I Need Someone (feat. Nathan Ball & Caleb Femi)
DR6 -0.62 dB -8.80 dB 7:05 04-Remember (feat. Suli Breaks & LSK)
DR8 -0.10 dB -10.55 dB 6:15 05-Synthesizer (feat. Nathan Ball)
DR9 -0.18 dB -12.35 dB 5:54 06-My Town (feat. GAIKA)
DR8 -0.22 dB -9.88 dB 4:26 07-What Shall I Do?
DR11 -0.23 dB -15.50 dB 2:17 08-Friendship
DR10 -1.37 dB -13.71 dB 2:44 09-Walk in My Shoes
DR6 -0.10 dB -7.89 dB 4:38 10-All Blessed
DR7 -0.10 dB -8.64 dB 4:07 11-Innadadance (feat. Suli Breaks & Jazzie B)
DR8 -3.91 dB -13.76 dB 6:39 12-Take Your Time (feat. Damien Jurado & Suli Breaks)
DR5 0.00 dB -7.51 dB 3:12 13-Innadadance (feat. Suli Breaks & Jazzie B) [Meduza Remix] (Edit)
DR4 -0.09 dB -6.40 dB 3:05 14-I Need Someone (feat. Nathan Ball & Caleb Femi) ([Alok Remix] [Edit])
DR5 -0.10 dB -6.83 dB 4:47 15-Synthesizer (feat. Nathan Ball) ([Maceo Plex Remix] [Edit])
DR4 0.00 dB -5.96 dB 3:12 16-Innadadance (feat. Suli Breaks & Jazzie B) (Claptone Remix Edit)
DR6 -0.10 dB -6.64 dB 3:18 17-This Feeling (feat. Suli Breaks & Nathan Ball) (Edit)
DR4 -0.10 dB -6.76 dB 3:02 18-I Need Someone (feat. Nathan Ball & Caleb Femi) (Paul Woolford Remix)
DR6 -0.10 dB -6.62 dB 4:00 19-Synthesizer (feat. Nathan Ball) ([Patrice Bäumel Remix] [Edit])
DR5 -0.10 dB -6.16 dB 3:04 20-Necesito a alguien (feat. Nathan Ball & Mala Rodríguez)
DR6 0.00 dB -7.40 dB 3:04 21-This Feeling (feat. Suli Breaks & Nathan Ball) ([Waze & Odyssey Remix] [Edit])
DR6 -0.10 dB -6.77 dB 4:36 22-Synthesizer (feat. Nathan Ball) ([Butch Remix] [Edit])
DR5 -0.35 dB -6.46 dB 3:47 23-I Need Someone (feat. Nathan Ball & Caleb Femi) [Yotto Remix] (Edit)
DR4 -0.10 dB -6.37 dB 3:02 24-Necesito a alguien (feat. Nathan Ball & Mala Rodríguez) (Paul Woolford Remix)
DR5 -0.10 dB -6.35 dB 4:45 25-This Feeling (feat. Suli Breaks & Nathan Ball) (R Plus Remix)
DR4 0.00 dB -5.65 dB 3:30 26-Synthesizer (feat. Nathan Ball) (Cristoph Remix - Edit)
DR6 -0.10 dB -8.16 dB 3:43 27-Poetry (Jay Hudson Remix) (Edit)
DR7 0.00 dB -9.03 dB 3:10 28-I Need Someone (feat. Nathan Ball & Caleb Femi) (Blissy Funked Mix)
DR5 -0.10 dB -7.44 dB 3:50 29-Synthesizer (feat. Nathan Ball) (Calvin Logue RemixEdit)
DR6 -0.50 dB -8.19 dB 3:00 30-I Need Someone (feat. Nathan Ball & Caleb Femi) (Acoustic)
––––––––––––––––––––––––––––––––––––––––

Number of tracks: 30
Official DR value: DR6

Samplerate: 44100 Hz
Channels: 2
Bits per sample: 24
Bitrate: 1490 kbps
Codec: FLAC
================================================================================


Thanks to the Original customer!