Gerry Beckley - Keeping the Light On: The Best of Gerry Beckley (2021) [Official Digital Download 24/96]

Posted By: shamanicus
Gerry Beckley - Keeping the Light On: The Best of Gerry Beckley (2021) [Official Digital Download 24/96]

Gerry Beckley - Keeping the Light On: The Best of Gerry Beckley (2021)
FLAC (tracks) 24-bit/96 kHz | 1:10:11 | 1.38 Gb
Studio Master, Official Digital Download | Artwork: front cover

Rare is the musician who can be part of an iconic band and still manage to carve out a path of their own that is as, if not more, creatively rich and accomplished as that which made him famous. Count Gerry Beckley as one of those precious few. You will know him as half (originally one-third) of America, a troupe that celebrated its 50th anniversary last year and enjoys a legacy of enduring hit singles. Keeping The Light On: The Best Of Gerry Beckley offers a generous 20-track overview of Beckley’s solo output - and beyond. The album also includes five previously unreleased tracks and showcases how prodigious Beckley’s output is when he’s in songwriting mode.

Tracklist:

01. 3am
02. Crying
03. Emma
04. Watching the Time
05. Calling You
06. Self Image
07. Now Sue
08. Goodbye Highway
09. Norman
10. Always
11. Hang Your Head High
12. (I'm Your) Heart Slave
13. Life Lessons
14. Once a Distant Heart
15. Tokyo
16. Cup of Rain
17. How Can I Turn You Away
18. Calling
19. Home Again
20. Keeping the Light On


foobar2000 1.4 / Dynamic Range Meter 1.1.1
log date: 2021-03-26 22:42:02

––––––––––––––––––––––––––––––––––––––––
Analyzed: Gerry Beckley / Keeping the Light On - The Best of Gerry Beckley
––––––––––––––––––––––––––––––––––––––––

DR Peak RMS Duration Track
––––––––––––––––––––––––––––––––––––––––
DR10 -2.98 dB -16.59 dB 1:12 01-3am
DR10 -0.49 dB -11.65 dB 3:15 02-Crying
DR11 -0.51 dB -12.04 dB 3:58 03-Emma
DR11 -0.53 dB -13.17 dB 3:54 04-Watching the Time
DR11 -1.01 dB -15.05 dB 4:08 05-Calling You
DR11 -0.49 dB -13.00 dB 3:24 06-Self Image
DR10 -1.36 dB -13.27 dB 3:06 07-Now Sue
DR10 -0.98 dB -13.05 dB 4:17 08-Goodbye Highway
DR11 -0.55 dB -14.86 dB 3:09 09-Norman
DR11 -1.04 dB -13.02 dB 2:00 10-Always
DR8 -1.75 dB -11.48 dB 3:30 11-Hang Your Head High
DR11 -0.47 dB -13.73 dB 4:02 12-(I'm Your) Heart Slave
DR10 -1.40 dB -12.40 dB 4:01 13-Life Lessons
DR8 -1.25 dB -11.55 dB 2:25 14-Once a Distant Heart
DR9 -1.29 dB -11.75 dB 3:47 15-Tokyo
DR10 -1.20 dB -14.17 dB 4:01 16-Cup of Rain
DR11 -0.49 dB -13.41 dB 3:39 17-How Can I Turn You Away
DR9 -1.95 dB -12.46 dB 3:39 18-Calling
DR12 -0.50 dB -13.75 dB 3:59 19-Home Again
DR10 -0.50 dB -13.26 dB 4:46 20-Keeping the Light On
––––––––––––––––––––––––––––––––––––––––

Number of tracks: 20
Official DR value: DR10

Samplerate: 96000 Hz
Channels: 2
Bits per sample: 24
Bitrate: 2751 kbps
Codec: FLAC
================================================================================




Thanks to the Original customer.