Tags
Language
Tags

God Is an Astronaut - Ghost Tapes #10 (2021) [Official Digital Download 24/96]

Posted By: delpotro
God Is an Astronaut - Ghost Tapes #10 (2021) [Official Digital Download 24/96]

God Is an Astronaut - Ghost Tapes #10 (2021)
FLAC (tracks) 24-bit/96 kHz | Front Cover | Time - 37:18 minutes | 728 MB
Post-Rock, Progressive Rock | Label: Napalm Records, Official Digital Download

Reigning as one of the most well-known experimental instrumental groups out there with a respected musical legacy spanning nearly 20 years, Irish four-piece God Is An Astronaut will reach a career benchmark upon the release of their 10th studio album, Ghost Tapes #10.

Ghost Tapes #10 rekindles the band’s classic line up with Jamie Dean once again on piano and guitar duties, and rather than pick up where the quartet left off in 2018, explores a radically different approach, with the focus fixed on movement and intensity. While the album is certainly the most ferocious God Is An Astronaut full-length to date, it still retains all of the rich musical and emotive elements the band is known for by maneuvering around luminescence whilst offering harsh, deep reflections as well.

Tracklist:
1. Adrift (06:57)
2. Burial (06:04)
3. In Flux (06:08)
4. Spectres (04:29)
5. Fade (05:37)
6. Barren Trees (04:11)
7. Luminous Waves (03:48)

foobar2000 1.4.1 / Dynamic Range Meter 1.1.1
log date: 2021-02-12 09:53:24

––––––––––––––––––––––––––––––––––––––––
Analyzed: God Is an Astronaut / Ghost Tapes #10
––––––––––––––––––––––––––––––––––––––––

DR Peak RMS Duration Track
––––––––––––––––––––––––––––––––––––––––
DR10 -1.02 dB -13.02 dB 6:57 01-Adrift
DR9 -1.01 dB -12.43 dB 6:04 02-Burial
DR10 -1.01 dB -14.05 dB 6:09 03-In Flux
DR9 -1.01 dB -12.14 dB 4:29 04-Spectres
DR10 -1.01 dB -12.40 dB 5:38 05-Fade
DR9 -1.01 dB -12.88 dB 4:12 06-Barren Trees
DR11 -3.47 dB -18.42 dB 3:49 07-Luminous Waves
––––––––––––––––––––––––––––––––––––––––

Number of tracks: 7
Official DR value: DR10

Samplerate: 96000 Hz
Channels: 2
Bits per sample: 24
Bitrate: 2440 kbps
Codec: FLAC
================================================================================


Thanks to the Original customer!