Tags
Language
Tags

Godspeed You! Black Emperor - G_d’s Pee AT STATE’S END! (2021) [Official Digital Download 24/44-96]

Posted By: delpotro
Godspeed You! Black Emperor - G_d’s Pee AT STATE’S END! (2021) [Official Digital Download 24/44-96]

Godspeed You! Black Emperor - G_d’s Pee AT STATE’S END! (2021)
FLAC (tracks) 24-bit/44,1-96 kHz | Front Cover | Time - 52:38 minutes | 852 MB
Experimental Rock, Post-Rock | Label: Constellation Records, Official Digital Download

The inimitable GYBE returns with another soundtrack for our times. As the heretical anarcho-punk spirit of the title implies, Godspeed harnesses some particularly raw power, spittle and grit across two riveting 20-minute side-length trajectories of noise-drenched widescreen post-rock: inexorable chug blossoms into blown-out twang, as some of the band’s most soaring, searing melodies ricochet and converge amidst violin and bassline counterpoint. Field recordings and roiling semi-improvised passages frame these fervent epics, and two shorter self-contained 6-minute pieces find the band at its most devastatingly beautiful, haunting and elegiac.

Poignant atmospherics, noise-drenched orchestration, drone, hypnotic swingtime crescendos, inexorably-layered towers of distorted clarion sound: STATE’S END encapsulates every beloved facet of the band. Twenty-five years on, this new album is as vital, stirring, timely and implacable as any in Godspeed You! Black Emperor’s storied discography. Recorded and mixed by Jace Lasek, the veteran award-winning indie producer (and co-founder of The Besnard Lakes) who works with Godspeed for the first time on this recording.

Tracklist:
1. Military Alphabet (five eyes all blind) [4521.0kHz 6730.0kHz 4109.09kHz] (04:35)
2. Job's Lament (08:02)
3. First of the Last Glaciers (05:59)
4. where we break how we shine (ROCKETS FOR MARY) (01:44)
5. Fire at Static Valley (05:58)
6. “GOVERNMENT CAME” (9980.0kHz 3617.1kHz 4521.0 kHz) (11:35)
7. Cliffs Gaze / cliffs’ gaze at empty waters’ rise / ASHES TO SEA or NEARER TO THEE (08:12)
8. OUR SIDE HAS TO WIN (for D.H.) (06:30)

foobar2000 1.4.1 / Dynamic Range Meter 1.1.1
log date: 2021-04-05 12:17:18

––––––––––––––––––––––––––––––––––––––––
Analyzed: Godspeed You! Black Emperor / G_d's Pee AT STATE'S END!
––––––––––––––––––––––––––––––––––––––––

DR Peak RMS Duration Track
––––––––––––––––––––––––––––––––––––––––
DR9 -4.45 dB -17.60 dB 4:35 01-Military Alphabet (five eyes all blind) [4521.0kHz 6730.0kHz 4109.09kHz]
DR7 -1.00 dB -9.22 dB 8:02 02-Job's Lament
DR8 -1.00 dB -10.20 dB 6:00 03-First of the Last Glaciers
DR22 -3.98 dB -32.64 dB 1:45 04-where we break how we shine (ROCKETS FOR MARY)
DR8 -1.00 dB -11.94 dB 5:58 05-Fire at Static Valley
DR6 -1.00 dB -10.79 dB 8:12 07-Cliffs Gaze / cliffs’ gaze at empty waters’ rise / ASHES TO SEA or NEARER TO THEE
DR8 -1.00 dB -11.94 dB 6:30 08-OUR SIDE HAS TO WIN (for D.H.)
––––––––––––––––––––––––––––––––––––––––

Number of tracks: 7
Official DR value: DR10

Samplerate: 96000 Hz
Channels: 2
Bits per sample: 24
Bitrate: 2438 kbps
Codec: FLAC
================================================================================

foobar2000 1.4.1 / Dynamic Range Meter 1.1.1
log date: 2021-04-05 12:16:47

––––––––––––––––––––––––––––––––––––––––
Statistics for: 06-“GOVERNMENT CAME” (9980.0kHz 3617.1kHz 4521.0 kHz)
Number of samples: 30672706
Duration: 11:36
––––––––––––––––––––––––––––––––––––––––

Left Right

Peak Value: -1.00 dB –- -1.00 dB
Avg RMS: -11.55 dB –- -11.57 dB
DR channel: 7.62 dB –- 7.53 dB
––––––––––––––––––––––––––––––––––––––––

Official DR Value: DR8

Samplerate: 44100 Hz
Channels: 2
Bits per sample: 24
Bitrate: 1417 kbps
Codec: FLAC
================================================================================

Thanks to the Original customer!