Tags
Language
Tags

Gustaf Ljunggren & Skúli Sverrisson - Floreana (2022) [Official Digital Download]

Posted By: delpotro
Gustaf Ljunggren & Skúli Sverrisson - Floreana (2022) [Official Digital Download]

Gustaf Ljunggren & Skúli Sverrisson - Floreana (2022)
FLAC (tracks) 24-bit/44,1 kHz | Front Cover | Time - 43:08 minutes | 419 MB
Contemporary Jazz, Ambient | Label: April Records, Official Digital Download

Swedish multi-instrumentalist and composer Gustaf Ljunggren has teamed up with Icelandic Bass Guitar player and composer Skúli Sverrisson (Laurie Anderson, Ryuichi Sakamoto, Bill Frisell, Blonde Redhead ) to create an album that wishes to offer the listener private musical spaces to dwell in for a while.

Ljunggren’s musical language is clear, gentle, and melodic, and the pieces chosen for this album all share a sense of weaving past and future together into the present. Gustaf Ljunggren reflects about the music on Floreana: “I listened inwards, and it sounded like this. Melodies came to the surface, and I chose to say ‘yes’ to them, embrace them, carry them forward. My musical partner on this album, Skúli Sverrisson, has been with me throughout this process; embracing the music with both profound dedication and artistic boldness.”

The music on the album grants the listener access to something that’s forgotten or undiscovered. There’s a sensuousness throughout the work; musical spaces that reveal possibilities to listen inwards, aided by repetition in melodies and patterns. The music doesn’t seek climaxes as much as it seeks states of presence and attention.

The live concerts with Gustaf Ljunggren and Skúli Sverrisson will explore the spaces the music on Floreana invites to. Two of northern Europe’s most distinctive instrumentalists will interpret Ljunggren’s compositions with a strong attention to the environment where the music is performed. The audience can expect the performers to display a deep commitment to the presence of the music as it unfolds. Each concert will be an exclusive, one-of-a-kind experience - a celebration of the spaces within, that Floreana seeks out to discover.

Tracklist:
1. Gustaf Ljunggren & Skúli Sverrisson – Palace Prelude (00:55)
2. Gustaf Ljunggren & Skúli Sverrisson – Leading Somewhere (04:23)
3. Gustaf Ljunggren & Skúli Sverrisson – Kongens Mark (03:43)
4. Gustaf Ljunggren & Skúli Sverrisson – Bottomless Siestas (04:51)
5. Gustaf Ljunggren & Skúli Sverrisson – Olive (03:47)
6. Gustaf Ljunggren – Isen Bruten (03:30)
7. Gustaf Ljunggren & Skúli Sverrisson – Codimar (06:49)
8. Gustaf Ljunggren & Skúli Sverrisson – Streams (04:14)
9. Gustaf Ljunggren & Skúli Sverrisson – Vestegnsromantik (04:31)
10. Gustaf Ljunggren – Maren (01:22)
11. Gustaf Ljunggren & Skúli Sverrisson – Vi Overlever (04:57)

foobar2000 1.4.1 / Dynamic Range Meter 1.1.1
log date: 2022-05-19 10:49:57

––––––––––––––––––––––––––––––––––––––––
Analyzed: Gustaf Ljunggren & Skúli Sverrisson / Floreana
––––––––––––––––––––––––––––––––––––––––

DR Peak RMS Duration Track
––––––––––––––––––––––––––––––––––––––––
DR10 -1.83 dB -14.69 dB 0:55 01-Palace Prelude
DR10 -1.33 dB -13.24 dB 4:24 02-Leading Somewhere
DR9 -0.50 dB -11.16 dB 3:43 03-Kongens Mark
DR8 -0.50 dB -11.08 dB 4:52 04-Bottomless Siestas
DR11 -0.50 dB -13.47 dB 3:48 05-Olive
DR6 -0.50 dB -9.60 dB 3:30 06-Isen Bruten
DR7 -0.50 dB -10.33 dB 6:50 07-Codimar
DR8 -1.44 dB -10.73 dB 4:14 08-Streams
DR8 -0.50 dB -11.58 dB 4:32 09-Vestegnsromantik
DR10 -0.60 dB -13.67 dB 1:23 10-Maren
DR7 -0.50 dB -10.20 dB 4:58 11-Vi Overlever
––––––––––––––––––––––––––––––––––––––––

Number of tracks: 11
Official DR value: DR8

Samplerate: 44100 Hz
Channels: 2
Bits per sample: 24
Bitrate: 1377 kbps
Codec: FLAC
================================================================================


Thanks to the Original customer!