Half Moon Run - Inwards & Onwards (EP) (2021) [Official Digital Download 24/96]

Posted By: delpotro
Half Moon Run - Inwards & Onwards (EP) (2021) [Official Digital Download 24/96]

Half Moon Run - Inwards & Onwards (EP) (2021)
FLAC (tracks) 24-bit/96 kHz | Front Cover | Time - 19:05 minutes | 368 MB
Indie Rock | Label: Glassnote Records, Official Digital Download

The Canadian indie rock stars are back with this six-song EP, Inwards & Onwards. True to form of constantly evolving and exploring new pathways to making music that excites them, this effort saw them recording, engineering, and producing everything at their jam space themselves.

Tracklist:
1. How Come My Body (02:18)
2. On & On (03:35)
3. Fxgiving (04:09)
4. It's True (02:50)
5. Nosebleeds (02:43)
6. Tiny (03:27)

foobar2000 1.4.1 / Dynamic Range Meter 1.1.1
log date: 2021-06-18 11:48:00

––––––––––––––––––––––––––––––––––––––––
Analyzed: Half Moon Run / Inwards & Onwards
––––––––––––––––––––––––––––––––––––––––

DR Peak RMS Duration Track
––––––––––––––––––––––––––––––––––––––––
DR7 -0.50 dB -12.06 dB 2:19 01-How Come My Body
DR6 -0.50 dB -10.00 dB 3:36 02-On & On
DR7 -0.50 dB -9.84 dB 4:09 03-Fxgiving
DR5 -0.50 dB -8.32 dB 2:50 04-It's True
DR9 -0.50 dB -14.20 dB 2:44 05-Nosebleeds
DR6 -0.50 dB -9.71 dB 3:27 06-Tiny
––––––––––––––––––––––––––––––––––––––––

Number of tracks: 6
Official DR value: DR7

Samplerate: 96000 Hz
Channels: 2
Bits per sample: 24
Bitrate: 2603 kbps
Codec: FLAC
================================================================================


Thanks to the Original customer!