Israel Klezmer Orchestra - Israel Klezmer Orchestra (2019) [Official Digital Download]

Posted By: El Misha
Israel Klezmer Orchestra - Israel Klezmer Orchestra (2019) [Official Digital Download]

Israel Klezmer Orchestra - Israel Klezmer Orchestra (2019)
FLAC (tracks) 24-bit/44.10 kHz | Time - 24:54 | 287 MB
Studio Master, Official Digital Download | Artwork: Front cover

Large musical ensemble which performs Klezmer music, the musical heritage of the Eastern European Jews. The group, the only one of its kind in the world, possesses a distinctive size & energy which hearken back to the early 20th century, when large Klezmer orchestras were still all the rage.



Tracklist:

1. Sadegura 01:59
2. Doina 01:55
3. At The Rabbi's Feast (Baym Rebns Sideh) 02:03
4. Khotinskaya Patch Tanz 02:28
5. Naftule, Shpil Es Noch A'Mol 02:40
6. Moldavskiy Tanz 02:32
7. Sher 03:28
8. Naftuli's Freilachs 01:42
9. Limonchiki 03:23
10. Der Heyser Bulgar 02:44

foobar2000 1.4 / Dynamic Range Meter 1.1.1
log date: 2021-04-08 07:52:49

––––––––––––––––––––––––––––––––––––––––
Analyzed: Israel Klezmer Orchestra / Israel Klezmer Orchestra
––––––––––––––––––––––––––––––––––––––––

DR Peak RMS Duration Track
––––––––––––––––––––––––––––––––––––––––
DR7 -0.20 dB -8.45 dB 2:00 01-Sadegura
DR9 -2.24 dB -14.50 dB 1:56 02-Doina
DR7 -0.20 dB -7.88 dB 2:03 03-At the Rabbi's Feast (Baym Rebns Sideh)
DR7 -0.20 dB -8.33 dB 2:29 04-Khotinskaya Patch Tanz
DR7 -0.20 dB -8.12 dB 2:41 05-Naftule, Shpil Es Noch A'mol
DR10 -0.20 dB -12.57 dB 2:32 06-Moldavskiy Tanz
DR7 -0.20 dB -7.96 dB 3:29 07-Sher
DR7 -0.20 dB -8.96 dB 1:42 08-Naftuli's Freilachs
DR7 -0.20 dB -8.44 dB 3:24 09-Limonchiki
DR7 -0.20 dB -8.42 dB 2:45 10-Der Heyser Bulgar
––––––––––––––––––––––––––––––––––––––––

Number of tracks: 10
Official DR value: DR7

Samplerate: 44100 Hz
Channels: 2
Bits per sample: 24
Bitrate: 1636 kbps
Codec: FLAC
================================================================================



Thanks to the Original customer!