Jah Wobble - Thames Symphony (2019) [Official Digital Download]

Posted By: delpotro
Jah Wobble - Thames Symphony (2019) [Official Digital Download]

Jah Wobble - Thames Symphony (2019)
FLAC (tracks) 24-bit/44,1 kHz | Front Cover | Time - 34:39 minutes | 333 MB
Dub, World | Label: Jah Wobble, Official Digital Download

Inspired by the Thames. Especially walking by the Thames. Once you have done that your mind can always take you back to there. There’s no centre to you mind no boundary. So all is possible.

Tracklist:
1. Hercules Buildings (07:21)
2. Vauxhall (07:55)
3. Downward Dog (02:56)
4. Hypnotic (03:28)
5. Mind Like Space (02:40)
6. Harp Melody (07:30)
7. Gliding (02:49)

foobar2000 1.4.1 / Dynamic Range Meter 1.1.1
log date: 2021-01-13 19:49:00

––––––––––––––––––––––––––––––––––––––––
Statistics for: 02-Vauxhall
Number of samples: 20967424
Duration: 7:55
––––––––––––––––––––––––––––––––––––––––

Left Right

Peak Value: -0.29 dB –- -0.29 dB
Avg RMS: -6.51 dB –- -6.54 dB
DR channel: 4.56 dB –- 4.50 dB
––––––––––––––––––––––––––––––––––––––––

Official DR Value: DR5

Samplerate: 44100 Hz
Channels: 2
Bits per sample: 16
Bitrate: 824 kbps
Codec: FLAC
================================================================================
––––––––––––––––––––––––––––––––––––––––
Analyzed: Jah Wobble / Thames Symphony
––––––––––––––––––––––––––––––––––––––––

DR Peak RMS Duration Track
––––––––––––––––––––––––––––––––––––––––
DR6 -0.29 dB -7.62 dB 2:56 03-Downward Dog
DR4 -0.09 dB -7.01 dB 3:28 04-Hypnotic
DR8 -0.20 dB -9.31 dB 2:40 05-Mind Like Space
DR7 -0.12 dB -8.16 dB 7:30 06-Harp Melody
DR6 -0.49 dB -8.74 dB 2:49 07-Gliding
––––––––––––––––––––––––––––––––––––––––

Number of tracks: 5
Official DR value: DR6

Samplerate: 44100 Hz
Channels: 2
Bits per sample: 24
Bitrate: 1599 kbps
Codec: FLAC
================================================================================

foobar2000 1.4.1 / Dynamic Range Meter 1.1.1
log date: 2021-01-13 19:48:58

––––––––––––––––––––––––––––––––––––––––
Statistics for: 01-Hercules Buildings
Number of samples: 19439616
Duration: 7:21
––––––––––––––––––––––––––––––––––––––––

Left Right

Peak Value: 0.00 dB –- 0.00 dB
Avg RMS: -9.39 dB –- -9.28 dB
DR channel: 6.56 dB –- 6.45 dB
––––––––––––––––––––––––––––––––––––––––

Official DR Value: DR7

Samplerate: 44100 Hz
Channels: 2
Bits per sample: 24
Bitrate: 1511 kbps
Codec: FLAC
================================================================================

Thanks to the Original customer!