Tags
Language
Tags

Jay-Jay Johanson - Rorschach Test (2021) [Official Digital Download]

Posted By:
Jay-Jay Johanson - Rorschach Test (2021) [Official Digital Download]

Jay-Jay Johanson - Rorschach Test (2021)
FLAC (tracks) 24-bit/44,1 kHz | Front Cover | Time - 44:49 minutes | 472 MB
Electronic, Trip-Hop | Label: 29Music, Official Digital Download

On his 13th album Jay-Jay has captured something magical on every track “Rorschach Test” is the newest venture of the Swedish Trip Hop Crooner Jay-Jay Johanson, who’s been hailed as one of the most influential artists, and best voices of his generation, kind of legendary pioneer from the late 90’s. On his 13th album “Rorschach Test” Jay-Jay has indeed captured something magical on every track. From « Romeo », « Why wait until tomorrow » until « Cheetah ». A strong sign that he’s still on top of his game.

Tracklist:
1. Romeo (05:31)
2. Why Wait Until Tomorrow (04:23)
3. Vertigo (04:29)
4. Amen (03:24)
5. I Don't Like You (05:20)
6. Stalker (04:26)
7. When Life Has Lost Its Meaning (05:08)
8. Andy Warhol's Blood for Dracula (03:05)
9. How Can I Go On (03:38)
10. Cheetah (05:23)

foobar2000 1.4.1 / Dynamic Range Meter 1.1.1
log date: 2021-03-16 22:26:33

––––––––––––––––––––––––––––––––––––––––
Analyzed: Jay-Jay Johanson / Rorschach Test
––––––––––––––––––––––––––––––––––––––––

DR Peak RMS Duration Track
––––––––––––––––––––––––––––––––––––––––
DR8 -0.37 dB -9.26 dB 5:32 01-Romeo
DR7 -0.37 dB -8.97 dB 4:24 02-Why Wait Until Tomorrow
DR7 -0.37 dB -9.59 dB 4:29 03-Vertigo
DR12 -0.37 dB -14.60 dB 3:24 04-Amen
DR7 -0.37 dB -8.37 dB 5:20 05-I Don't Like You
DR7 -0.37 dB -9.15 dB 4:26 06-Stalker
DR7 -0.37 dB -8.57 dB 5:08 07-When Life Has Lost Its Meaning
DR10 -0.37 dB -12.81 dB 3:05 08-Andy Warhol's Blood for Dracula
DR8 -0.37 dB -9.66 dB 3:38 09-How Can I Go On
DR8 -0.37 dB -10.48 dB 5:23 10-Cheetah
––––––––––––––––––––––––––––––––––––––––

Number of tracks: 10
Official DR value: DR8

Samplerate: 44100 Hz
Channels: 2
Bits per sample: 24
Bitrate: 1523 kbps
Codec: FLAC
================================================================================


Thanks to the Original customer!