Tags
Language
Tags

Jerry Garcia Band - GarciaLive Volume 16: November 15th, 1991 Madison Square Garden (2021) [Official Digital Download 24/88]

Posted By: delpotro
Jerry Garcia Band - GarciaLive Volume 16: November 15th, 1991 Madison Square Garden (2021) [Official Digital Download 24/88]

Jerry Garcia Band - GarciaLive Volume 16: November 15th, 1991 Madison Square Garden (2021)
FLAC (tracks) 24-bit/88,2 kHz | Front Cover | Time - 154:54 minutes | 2,8 GB
Psychedelic Rock, Folk Rock, Jam Band | Label: Round Records, Official Digital Download

Garcia Live Volume 16 is a three-CD album by the Jerry Garcia Band. It contains the complete concert recorded on November 15, 1991 at Madison Square Garden in New York City. It is scheduled to be released on June 25, 2021. This show was the Jerry Garcia Band's first appearance at Madison Square Garden. It featured their 1986 to 1993 lineup of Jerry Garcia on guitar and vocals, Melvin Seals on keyboards, John Kahn on bass, David Kemper on drums, and Jaclyn LaBranch and Gloria Jones on backing vocals.

Tracklist:
1. How Sweet It Is (To Be Loved By You) (Live)
2. Struggling Man (Live)
3. He Ain't Give You None (Live)
4. Simple Twist of Fate (Live)
5. Lay Down Sally (Live)
6. The Night They Drove Old Dixie Down (Live)
7. My Sisters and Brothers (Live)
8. Deal (Live)
9. The Way You Do The Things You Do (Live)
10. Waiting for a Miracle (Live)
11. Shining Star (Live)
12. Ain't No Bread in the Breadbox (Live)
13. Don't Let Go (Live)
14. That Lucky Old Sun (Live)
15. Bright Side of the Road (Live)
16. (What A) Wonderful World (Live)

foobar2000 1.4.1 / Dynamic Range Meter 1.1.1
log date: 2021-06-27 16:23:54

––––––––––––––––––––––––––––––––––––––––
Analyzed: Jerry Garcia Band / GarciaLive Volume 16 11-15-91
––––––––––––––––––––––––––––––––––––––––

DR Peak RMS Duration Track
––––––––––––––––––––––––––––––––––––––––
DR9 -0.30 dB -11.24 dB 7:41 01-How Sweet It Is (To Be Loved By You)
DR10 -0.30 dB -12.68 dB 7:18 02-Struggling Man
DR8 -0.30 dB -10.17 dB 8:32 03-He Ain’t Give You None
DR10 -0.30 dB -14.96 dB 13:42 04-Simple Twist of Fate
DR10 -0.30 dB -11.72 dB 10:01 05-Lay Down Sally
DR8 -0.30 dB -10.82 dB 9:44 06-The Night They Drove Old Dixie Down
DR9 -0.30 dB -12.11 dB 4:36 07-My Sisters and Brothers
DR6 -0.30 dB -8.20 dB 9:02 08-Deal
DR9 -0.30 dB -12.06 dB 14:11 09-The Way You Do The Things You Do
DR8 -0.30 dB -9.85 dB 6:16 10-Waiting For A Miracle
DR9 -0.30 dB -12.04 dB 11:26 11-Shining Star
DR8 -0.30 dB -10.45 dB 9:54 12-Ain’t No Bread in the Breadbox
DR8 -0.30 dB -10.61 dB 15:46 13-Don’t Let Go
DR8 -0.30 dB -12.93 dB 12:30 14-That Lucky Old Sun
DR8 -0.30 dB -11.04 dB 5:59 15-Bright Side of the Road
DR14 -0.30 dB -18.29 dB 8:17 16-(What A) Wonderful World
––––––––––––––––––––––––––––––––––––––––

Number of tracks: 16
Official DR value: DR9

Samplerate: 88200 Hz
Channels: 2
Bits per sample: 24
Bitrate: 2387 kbps
Codec: FLAC
================================================================================


Thanks to the Original customer!