Tags
Language
Tags

Jerry Garcia & David Grisman - Shady Grove (Deluxe Edition) (1996/2020) [Official Digital Download 24/96]

Posted By: delpotro
Jerry Garcia & David Grisman - Shady Grove (Deluxe Edition) (1996/2020) [Official Digital Download 24/96]

Jerry Garcia & David Grisman - Shady Grove (Deluxe Edition) (1996/2020)
FLAC (tracks) 24-bit/96 kHz | Front Cover & Digital Booklet | Time - 78:36 minutes | 1,49 GB
Folk, Acoustic | Label: Acoustic Disc, Official Digital Download

The third Garcia/Grisman album, this one concentrating on the traditional 'folk' song aspect of their repertoire.

Shady Grove Deluxe Edition showcases the folk songs and ballads that were performed and recorded by Jerry & David during the early 1990's. The recording includes their popular version of the title track as well as "Stealin," "Jackaroo" and "The Sweet Sunny South." Five tracks are duets, two of which feature Jerry playing 5-string banjo, with David playing guitar or 5-string banjo; five tracks feature the Garcia/Grisman band with DGQ members Joe Craven and Jim Kerwin, and three tracks are trios with special guests Bryan Bowers (autoharp), Matt Eakle (flute) and Will Scarlett (harmonica).

Shady Grove was recorded in Dawg Studios during the last five years of Jerry's life and shows the breadth and depth of Jerry Garcia as one of the great interpretive American folk artists of his or any other generation. This Deluxe Edition includes four previously unissued alternate takes and is for the first time available in Hi-Definition, making this classic recording all the more engaging.

Tracklist:
01 – Shady Grove
02 – Stealin’
03 – A Horse Named Bill
04 – Off To Sea Once More
05 – Louis Collins
06 – Fair Ellender
07 – Jackaroo
08 – Casey Jones
09 – Dreadful Wind And Rain
10 – I Truly Understand
11 – The Handsome Cabin Boy
12 – Whiskey In The Jar
13 – Down In The Valley
14 – Shady Grove (alternate take 1)
15 – Stealin’ (alternate take)
16 – Down In The Valley (duo version)
17 – Shady Grove (alternate take 2)

foobar2000 1.4.1 / Dynamic Range Meter 1.1.1
log date: 2021-01-16 20:55:30

––––––––––––––––––––––––––––––––––––––––
Analyzed: Jerry Garcia & David Grisman / Shady Grove (Deluxe Edition DD)
––––––––––––––––––––––––––––––––––––––––

DR Peak RMS Duration Track
––––––––––––––––––––––––––––––––––––––––
DR13 -0.80 dB -15.61 dB 4:18 01-Shady Grove
DR12 -0.63 dB -14.24 dB 3:31 02-Stealin'
DR13 -0.61 dB -16.76 dB 5:45 03-Off To Sea Once More
DR11 -0.71 dB -14.94 dB 3:29 04-The Sweet Sunny South
DR12 -0.74 dB -15.77 dB 5:57 05-Louis Collins
DR12 -0.63 dB -17.01 dB 6:12 06-Fair Ellender
DR12 -0.14 dB -14.46 dB 3:59 07-Jackaroo
DR11 -0.52 dB -14.72 dB 4:09 08-Casey Jones
DR13 -0.74 dB -16.34 dB 4:48 09-Dreadful Wind And Rain
DR12 -0.45 dB -15.76 dB 3:39 10-I Truly Understand
DR11 -0.45 dB -15.48 dB 6:11 11-The Handsome Cabin Boy
DR13 -0.45 dB -15.98 dB 4:22 12-Whiskey In The Jar
DR12 -1.03 dB -17.53 dB 5:03 13-Down In The Valley
DR15 -0.43 dB -19.15 dB 3:56 14-Shady Grove (alternate take 1)
DR13 -0.50 dB -16.79 dB 3:29 15-Stealin' (alternate take)
DR15 -0.48 dB -20.29 dB 5:52 16-Down In The Valley (duo version)
DR14 -0.11 dB -17.39 dB 3:54 17-Shady Grove (alternate take 2)
––––––––––––––––––––––––––––––––––––––––

Number of tracks: 17
Official DR value: DR13

Samplerate: 96000 Hz
Channels: 2
Bits per sample: 24
Bitrate: 2955 kbps
Codec: FLAC
================================================================================


Thanks to the Original customer!