Tags
Language
Tags

Johanna Klein Quartet - Cosmos (2021) [Official Digital Download 24/88]

Posted By: delpotro
Johanna Klein Quartet - Cosmos (2021) [Official Digital Download 24/88]

Johanna Klein Quartet - Cosmos (2021)
FLAC (tracks) 24-bit/88,2 kHz | Front Cover | Time - 47:56 minutes | 871 MB
Jazz Rock, Fusion, Avant-Garde Jazz | Label: Berthold Records, Official Digital Download

Johanna Klein (saxophone), Nicolai Amrehn (bass), Leo Engels (guitar) and Jan Philipp (drums) are all based in Cologne and have known each other for many years. Together as the Johanna Klein Quartet, they move between modern jazz and free improvisation, whilst also incorporating elements of pop and rock. Through the playful balancing of the compositions of the bandleader with a healthy amount of improvisational freedom, the band has developed it’s sound over many years; a sound that is specific and focused, yet occasionally unpredictable. Their debut album COSMOS successfully and succinctly documents this musical vision and will be released in 2021 on BERTHOLD records.

Tracklist:
01. Flux
02. Volkslied
03. Eden
04. Juno
05. Phobos
06. Beppo
07. C. Diem
08. C. Noctem
09. Deimos
10. Finis

foobar2000 1.6 / Dynamic Range Meter 1.1.1
log date: 2021-05-18 18:10:50

––––––––––––––––––––––––––––––––––––––––
Analyzed: Johanna Klein Quartet / Cosmos
––––––––––––––––––––––––––––––––––––––––

DR Peak RMS Duration Track
––––––––––––––––––––––––––––––––––––––––
DR10 -0.65 dB -12.45 dB 5:21 01-Flux
DR11 -0.63 dB -13.46 dB 5:12 02-Volkslied
DR10 -0.61 dB -12.59 dB 4:40 03-Eden
DR10 -0.60 dB -13.18 dB 6:06 04-Juno
DR11 -0.63 dB -12.65 dB 4:06 05-Phobos
DR13 -0.64 dB -16.45 dB 5:35 06-Beppo
DR11 -0.60 dB -13.67 dB 4:24 07-C. Diem
DR10 -0.62 dB -14.40 dB 6:33 08-C. Noctem
DR8 -0.58 dB -9.90 dB 4:30 09-Deimos
DR12 -0.61 dB -14.81 dB 1:31 10-Finis
––––––––––––––––––––––––––––––––––––––––

Number of tracks: 10
Official DR value: DR10

Samplerate: 88200 Hz
Channels: 2
Bits per sample: 24
Bitrate: 2233 kbps
Codec: FLAC
================================================================================


Thanks to the Original customer!