Tags
Language
Tags

Johnny Cash - A Night To Remember (Vinyl) (2020) [24bit-96kHz]

Posted By: delpotro
Johnny Cash - A Night To Remember (Vinyl) (2020) [24bit-96kHz]

Johnny Cash - A Night To Remember (Vinyl) (2020)
Vinyl Rip | FLAC (tracks) 24-bit/96 kHz | Front Cover | Time - 62:35 minutes | 1,21 GB
Country | Label: Third Man Records

Jack White’s Nashville-based Third Man Records continues its quarterly series of unique, collectible recordings with the upcoming release of Vault Package 45, A Night to Remember, by Johnny Cash. Memorializing a previously unavailable 1973 concert at the Ahmanson Theatre in Los Angeles, the vinyl package includes a double vintage-white LP and gold-foil LP jacket.

By 1973, Johnny Cash was well on his way to American icon status, having already become one of the most popular musicians on the planet. As a longtime artist on powerhouse Columbia Records, helmed at the time by Clive Davis, Cash was included in a unique series of shows taking place in Los Angeles beginning in late April of that year and running until May 5th. Appropriately billed as “A Week to Remember,” each night’s performance, with the highest ticket price just $7.50, featured pop, rock, jazz, R&B, folk, and country acts. Of special note was one of the labels’ most buzzworthy new acts, Bruce Springsteen, making his formal L.A. debut on a night that also featured Dr. Hook.

On May 5th, the series’ seventh and final night at the Ahmanson, Cash was featured alongside fellow Nashville superstars Tammy Wynette, George Jones, Lynn Anderson, and Charlie Rich for a performance that included some of the Man in Black’s most memorable hits: a mighty “Big River,” a masterful take on Kris Kristofferson’s “Sunday Morning Coming Down”; “Folsom Prison Blues”; and “I Walk the Line.” The Third Man release marks the first time Cash’s full show from that night has ever been available as a multi-track recording, with the DVD featuring backstage footage and highlights of Cash’s live show, which featured guest appearances from June Carter Cash, Larry Gatlin, and Carl Perkins.

Tracklist:
A1 – Johnny Cash – Big River
A2 – Johnny Cash – Sunday Morning Coming Down
A3 – Johnny Cash – The City Of New Orleans
A4 – Johnny Cash – Ballad Of Barbara
A5 – Johnny Cash – A Boy Named Sue
B6 – Johnny Cash – Going To Memphis
B7 – Johnny Cash – That Silver Haired Daddy Of Mine
B8 – Johnny Cash – Medley: Hey Porter / Folsom Prison Blues / Wreck of the Old 97 / Orange Blossom Special
C9 – Johnny Cash – I Walk The Line
C10 – Johnny Cash – Jackson
C11 – Johnny Cash – If I Were A Carpenter
C12 – Johnny Cash – Help Me Make It Through The Night
C13 – Johnny Cash – Help Me
D15 – Johnny Cash – If I Had A Hammer
D16 – Johnny Cash – Will The Circle Be Unbroken
D17 – Johnny Cash – Daddy Sang Bass
D18 – Johnny Cash – Folsom Prison Blues (outro)

foobar2000 1.4.1 / Dynamic Range Meter 1.1.1
log date: 2021-01-05 18:03:59

––––––––––––––––––––––––––––––––––––––––
Analyzed: Johnny Cash / A Night To Remember - May 5th, 1973 At The Ahmanson Theatre, Los Angeles, CA
––––––––––––––––––––––––––––––––––––––––

DR Peak RMS Duration Track
––––––––––––––––––––––––––––––––––––––––
DR13 -1.00 dB -15.29 dB 2:58 01-Clive Davis Introduction / Big River
DR12 -1.04 dB -16.48 dB 4:18 02-Sunday Morning Coming Down
DR14 -1.00 dB -18.29 dB 4:04 03-The City Of New Orleans
DR13 -6.34 dB -22.81 dB 4:04 04-Ballad of Barbara
DR13 -1.00 dB -16.24 dB 3:43 05-A Boy Named Sue
DR13 -2.57 dB -19.63 dB 4:08 06-Going To Memphis
DR13 -4.95 dB -20.67 dB 3:23 07-That Silver Haired Daddy Of Mine
DR13 -1.57 dB -16.57 dB 8:17 08-Medley: Hey Porter / Folsom Prison Blues / Wreck of the Old 97 / Orange Blossom Special
DR13 -2.07 dB -19.69 dB 4:33 09-I Walk The Line
DR12 -1.00 dB -14.74 dB 2:40 10-Jackson
DR12 -2.51 dB -17.52 dB 1:38 11-If I Were A Carpenter
DR13 -1.70 dB -17.92 dB 1:59 12-Help Me Make It Through The Night
DR12 -4.99 dB -20.99 dB 3:20 13-Help Me
DR13 -1.61 dB -19.02 dB 3:27 14-Lord, Is It I / The Last Supper
DR12 -1.00 dB -15.04 dB 1:59 15-If I Had A Hammer
DR12 -2.59 dB -17.78 dB 2:20 16-Will The Circle Be Unbroken
DR12 -1.00 dB -14.56 dB 2:29 17-Daddy Sang Bass
DR14 -1.24 dB -17.23 dB 3:15 18-Folsom Prison Blues (Outro)
––––––––––––––––––––––––––––––––––––––––

Number of tracks: 18
Official DR value: DR13

Samplerate: 96000 Hz
Channels: 2
Bits per sample: 24
Bitrate: 2793 kbps
Codec: FLAC
================================================================================


Music Hall: MMF 2.3LE Turntable -> Carbon Fiber Tonearm -> Audio-Technica: VM540ML Dual Moving Magnet Cartridge -> Music Hall Connect Phono Cable with Cardas Copper & Unique Grounding System -> Cambridge Solo Preamp -> Focusrite Audio Interface 2i2 -> HP Envy 2018 laptop -> Audacity 32 bit float WAV -> clickremoval level 20 -> dbpoweramp batch convert to 24bit FLAC

Thanks to the Original customer!