Tags
Language
Tags

Kraftwerk - Autobahn (Remastered Vinyl) (1974/2020) [24bit/96kHz]

Posted By: delpotro
Kraftwerk - Autobahn (Remastered Vinyl) (1974/2020) [24bit/96kHz]

Kraftwerk - Autobahn (Remastered Vinyl) (1974/2020)
Vinyl Rip | FLAC (tracks) 24-bit/96 kHz |Time - 42:51 minutes | 799 MB | Artwork - 21 MB
Experimental Electronic, Krautrock | Label: Kling Klang

Autobahn is the fourth studio album by German electronic band Kraftwerk, released in November 1974. It was the band's first album to fully embrace the repetitive electronic sound they would become known for (although organic instruments still remained part of their sonic palette) and was inspired by the titular German motorway system. The radio edit of the title track became a surprise international hit, reaching number 11 in the UK, number 12 in both Canada and the Netherlands, number 25 on the US Billboard Hot 100 chart, and number 30 in the Australian chart. In 2015, the album was inducted into the Grammy Hall of Fame.

Tracklist:
A – Autobahn (22:46)
B1 – Kometenmelodie 1 (06:41)
B2 – Kometenmelodie 2 (05:32)
B3 – Mitternacht (03:46)
B4 – Morgenspaziergang (04:03)

foobar2000 1.4.1 / Dynamic Range Meter 1.1.1
log date: 2020-11-12 15:33:51

––––––––––––––––––––––––––––––––––––––––
Analyzed: Kraftwerk / Autobahn
––––––––––––––––––––––––––––––––––––––––

DR Peak RMS Duration Track
––––––––––––––––––––––––––––––––––––––––
DR13 -0.26 dB -15.54 dB 22:45 01-Autobahn
DR13 0.00 dB -16.60 dB 6:45 02-Kometenmelodie 1
DR11 -1.43 dB -15.28 dB 5:26 03-Kometenmelodie 2
DR12 -0.32 dB -18.12 dB 3:48 04-Mitternacht
DR15 -1.64 dB -22.29 dB 4:08 05-Morgenspaziergang
––––––––––––––––––––––––––––––––––––––––

Number of tracks: 5
Official DR value: DR13

Samplerate: 96000 Hz
Channels: 2
Bits per sample: 24
Bitrate: 2501 kbps
Codec: FLAC
================================================================================


Vinyl Class: Ex
Turntable: Sherwood PM-9901
catridge: Audio-Technica AT 311 EP
EMU 1616m
Manual de-clicking
Ripped 24/96

Thanks to the Original customer!