Tags
Language
Tags

Long Distance Calling - How Do We Want To Live? (2020) [Official Digital Download 24/96]

Posted By: delpotro
Long Distance Calling - How Do We Want To Live? (2020) [Official Digital Download 24/96]

Long Distance Calling - How Do We Want To Live? (2020)
FLAC (tracks) 24-bit/96 kHz | Front Cover | Time - 52:58 minutes | 1,1 GB
Post-Rock, Post-Metal | Label: Inside Out Music, Official Digital Download

Germany’s most successful instrumental rock act Long Distance Calling explore the next step in their multi-faceted career with their 7th studio album ‘How Do We Want To Live?’. The band have returned with a sharply defined, artistically deep exploration of the relationship between humans and artificial intelligence. In late 2020, Long Distance Calling will continue their hugely successful ‘Seats & Sounds’ tour, and this year also saw them nominated for the German Musikautorenpreis 2020 for compositional & artistic achievement. ‘How Do We Want To Live?’ carries all the bands trademarked sounds whilst at the same time revealing new, surprising and unexpected elements of the Long Distance Calling sonic landscape.

Tracklist:
1. Curiosity, Pt. 1 (02:56)
2. Curiosity, Pt. 2 (04:26)
3. Hazard (06:08)
4. Voices (07:54)
5. Fail / Opportunity (03:07)
6. Immunity (05:40)
7. Sharing Thoughts (07:35)
8. Beyond Your Limits (06:24)
9. True / Negative (02:33)
10. Ashes (06:12)

foobar2000 1.5.4 / Dynamic Range Meter 1.1.1
log date: 2020-06-27 09:41:53

––––––––––––––––––––––––––––––––––––––––
Analyzed: Long Distance Calling / How Do We Want To Live?
––––––––––––––––––––––––––––––––––––––––

DR Peak RMS Duration Track
––––––––––––––––––––––––––––––––––––––––
DR14 -0.58 dB -18.79 dB 2:56 01-Curiosity, Pt. 1
DR6 -0.10 dB -9.14 dB 4:26 02-Curiosity, Pt. 2
DR6 -0.10 dB -9.77 dB 6:09 03-Hazard
DR7 -0.10 dB -11.32 dB 7:54 04-Voices
DR9 -0.10 dB -12.37 dB 3:07 05-Fail / Opportunity
DR7 -0.10 dB -9.28 dB 5:40 06-Immunity
DR7 -0.10 dB -10.16 dB 7:35 07-Sharing Thoughts
DR6 -0.10 dB -8.84 dB 6:25 08-Beyond Your Limits
DR8 -0.10 dB -10.63 dB 2:33 09-True / Negative
DR8 -0.10 dB -11.50 dB 6:12 10-Ashes
––––––––––––––––––––––––––––––––––––––––

Number of tracks: 10
Official DR value: DR8

Samplerate: 96000 Hz
Channels: 2
Bits per sample: 24
Bitrate: 2791 kbps
Codec: FLAC
================================================================================


Thanks to the Original customer!