Tags
Language
Tags
May 2024
Su Mo Tu We Th Fr Sa
28 29 30 1 2 3 4
5 6 7 8 9 10 11
12 13 14 15 16 17 18
19 20 21 22 23 24 25
26 27 28 29 30 31 1

Louis Matute - Small Variations of the Previous Day (2024) [Official Digital Download 24/88]

Posted By: delpotro
Louis Matute - Small Variations of the Previous Day (2024) [Official Digital Download 24/88]

Louis Matute - Small Variations of the Previous Day (2024)
FLAC (tracks) 24-bit/88,2 kHz | Front Cover | Time - 42:59 minutes | 816 MB
Contemporary Jazz, Latin Jazz, Post-Bop | Label: Neuklang, Official Digital Download

Louis Matute's fourth album, "Small Variations from the Previous Day," is propelled by the emotionally catalyzing 'Large Ensemble,' which continually welcomes new members. The album looks towards Central America and Brazil, drawing inspiration from jazz and elegant pop, from folk to Saudade. Matute invited Brandee Younger and Gabi Hartmann as guests for one track each, and Lea Maria Fries for two pieces in the studio.

The 'Large Ensemble' comprises Andrew Audiger (piano), Léon Phal (saxophone), Zacharie Ksyk (trumpet), Virgile Rosselet (double bass), and Nathan Vandenbulcke (drums), who also contributed to the last album, "Our Folklore," which was equally celebrated by audiences and critics alike. The album garnered accolades such as the ZKB Audience Jazz Award and the "Évidence" Prize from the Académie du Jazz.

Tracklist:
1. Narcissus (5:36)
2. Vue Soleil (4:41)
3. Alma No Mar (3:55)
4. 2000 Years (5:19)
5. Forever (3:54)
6. Movie Star (3:56)
7. Marcovaldo (3:13)
8. A Voz De Deus (4:20)
9. Memories (4:17)
10. Celebration of Details (3:49)

foobar2000 1.4.1 / Dynamic Range Meter 1.1.1
log date: 2024-03-26 16:23:34

––––––––––––––––––––––––––––––––––––––––
Analyzed: Louis Matute / Small Variations of the Previous Day
––––––––––––––––––––––––––––––––––––––––

DR Peak RMS Duration Track
––––––––––––––––––––––––––––––––––––––––
DR10 -1.16 dB -12.48 dB 5:36 01-Narcissus
DR11 -1.16 dB -13.90 dB 4:41 02-Vue Soleil
DR10 -1.16 dB -13.44 dB 3:55 03-Alma No Mar
DR10 -1.16 dB -12.52 dB 5:19 04-2000 Years
DR12 -1.16 dB -16.75 dB 3:54 05-Forever
DR9 -1.16 dB -12.01 dB 3:56 06-Movie Star
DR10 -1.16 dB -12.68 dB 3:13 07-Marcovaldo
DR9 -1.16 dB -12.94 dB 4:20 08-A Voz De Deus
DR10 -1.16 dB -13.90 dB 4:17 09-Memories
DR11 -1.16 dB -14.95 dB 3:49 10-Celebration of Details
––––––––––––––––––––––––––––––––––––––––

Number of tracks: 10
Official DR value: DR10

Samplerate: 88200 Hz
Channels: 2
Bits per sample: 24
Bitrate: 2630 kbps
Codec: FLAC
================================================================================


Thanks to the Original customer!