Tags
Language
Tags
March 2024
Su Mo Tu We Th Fr Sa
25 26 27 28 29 1 2
3 4 5 6 7 8 9
10 11 12 13 14 15 16
17 18 19 20 21 22 23
24 25 26 27 28 29 30
31 1 2 3 4 5 6

Marcy Luarks & Classic Touch - Electric Murder (Vinyl) (1983/2020) [24bit/96kHz]

Posted By: delpotro
Marcy Luarks & Classic Touch - Electric Murder (Vinyl) (1983/2020) [24bit/96kHz]

Marcy Luarks & Classic Touch - Electric Murder (Vinyl) (1983/2020)
Vinyl Rip | FLAC (tracks) 24-bit/96 kHz | Front Cover | Time - 29:09 minutes | 573 MB
Funk, Disco, Boogie, Female Vocal | Label: Kalita Records

It’s grail time! Kalita are honoured to officially release for the first time since 1983 Marcy Luarks & Classic Touch's mythical American-Nigerian Afro boogie masterpiece 'Electric Murder.

The product of the then husband and wife team of Marcy and Dan, 'Electric Murder' brought together both the former's American and the latter's Nigerian roots; recorded in London with UK-based session musicians, this mix of heritage and styles resulted in an Afro disco album unlike any other.

With original copies turning up for sale roughly once every few years, and with an eye-watering four-figure price tag to match, Kalita for this year's Record Store Day saves you the never-ending search for this true holy grail.

Tracklist:
A1 – Funky Boogie Woogie
A2 – I Don't Want To Share Your Love
A3 – Electric Murder
B1 – Inspiration
B2 – Shake
B3 – April Girl

foobar2000 1.4.1 / Dynamic Range Meter 1.1.1
log date: 2020-12-29 13:22:50

––––––––––––––––––––––––––––––––––––––––
Analyzed: Marcy Luarks & Classic Touch / Electric Murder
––––––––––––––––––––––––––––––––––––––––

DR Peak RMS Duration Track
––––––––––––––––––––––––––––––––––––––––
DR14 -1.14 dB -16.99 dB 4:37 01-Funky Boogie Woogie
DR12 -1.58 dB -15.50 dB 5:16 02-I Don't Want To Share Your Love
DR12 -0.50 dB -15.32 dB 3:46 03-Electric Murder
DR13 -1.69 dB -16.10 dB 3:45 04-Inspiration
DR15 -0.50 dB -17.32 dB 6:29 05-Shake
DR12 -2.55 dB -16.52 dB 5:16 06-April Girl
––––––––––––––––––––––––––––––––––––––––

Number of tracks: 6
Official DR value: DR13

Samplerate: 96000 Hz
Channels: 2
Bits per sample: 24
Bitrate: 2661 kbps
Codec: FLAC
================================================================================


Record: Marcy Luarks & Classic Touch "Electric Murder" (2020 reissue on Kalita Records KALITALP005)
Condition: NM, ripped on first play

Record cleaned with an Okki Nokki RCM prior to ripping.

Equipment used:
Custom Lenco L-75 (heavy birch plinth, PTP6 top plate) on maple isolation platform
Jelco SA-750E tonearm
Denon DL-103R rebuilt by Sound Smith
Musical Surroundings Phonomena II pre-amp
Apogee Duet ADC

24/96 wav captured in Audition
Post-processing in Izotope RX7 Advanced
Tags cleaned up in foobar2000

a mantis rip.

Thanks to the Original customer!