Tags
Language
Tags

Marie Kruttli - 30 Traps (EP) (2021) [Official Digital Download]

Posted By: delpotro
Marie Kruttli - 30 Traps (EP) (2021) [Official Digital Download]

Marie Kruttli - 30 Traps (EP) (2021)
FLAC (tracks) 24-bit/44,1 kHz | Front Cover | Time - 16:52 minutes | 181 MB
Contemporary Jazz | Label: Marie Kruttli, Official Digital Download

Colorful, captivating and bold: The trio of Marie Krüttli synthesizes with singularity the forces of Swiss jazz. This pianist is a UFO in the world of jazz. At 26, she imposed an original voice and a way for her to make the piano-double bass-drums trio ring.

Sharp rhythmic and harmonic language, bewitching virtuosity, powerful ideas, mature sound and unambiguous aesthetics. Interpreted with “groove” and lightness, this music speaks to the body and heart.`

"But what truly distinguishes her from many of her peers is her confident and straightforward delivery of a vast array of original musical ideas. Deeply indebted to composers such as Stravinsky, Debussy and Ravel (both her parents are classical musicians), she is at home in a wide range of dazzling melodic patterns, effortlessly mastering the most sophisticated chord changes."

Tracklist:
1. 30 Traps (04:33)
2. Dragon Life (03:48)
3. Le Temps (02:41)
4. Summer in Winter (03:34)
5. The Limit of My Faith (02:15)

foobar2000 1.4.1 / Dynamic Range Meter 1.1.1
log date: 2021-06-27 21:45:26

––––––––––––––––––––––––––––––––––––––––
Analyzed: Marie Kruttli / 30 Traps
––––––––––––––––––––––––––––––––––––––––

DR Peak RMS Duration Track
––––––––––––––––––––––––––––––––––––––––
DR9 -0.64 dB -11.59 dB 4:33 01-30 Traps
DR6 -0.22 dB -11.28 dB 3:48 02-Dragon Life
DR8 -0.53 dB -11.43 dB 2:42 03-Le Temps
DR8 -0.56 dB -10.89 dB 3:34 04-Summer in Winter
DR9 -0.50 dB -11.77 dB 2:15 05-The Limit of My Faith
––––––––––––––––––––––––––––––––––––––––

Number of tracks: 5
Official DR value: DR8

Samplerate: 44100 Hz
Channels: 2
Bits per sample: 24
Bitrate: 1530 kbps
Codec: FLAC
================================================================================


Thanks to the Original customer!