Tags
Language
Tags

Matthias Lindermayr - Sequence (2022) [Official Digital Download 24/48]

Posted By: delpotro
Matthias Lindermayr - Sequence (2022) [Official Digital Download 24/48]

Matthias Lindermayr - Sequence (2022)
FLAC (tracks) 24-bit/48 kHz | Front Cover | Time - 30:49 minutes | 309 MB
Contemporary Jazz, Modern Creative | Label: Squama Recordings, Official Digital Download

Following his trio debut ‘Triptych’ last year, trumpeter Matthias Lindermayr presents his duo record ‘Sequence’ with long-time companion and ECM Recording Artist Matthieu Bordenave on tenor saxophone.

In contrast to its technical title, ‘Sequence’ is a very lyrical record, sacral at times. Like two figure skaters, the voices gracefully glide along and whirl around in perfect synch, always sensing where the other one is going. A fitting comparison also, as the recording session was equally exhausting, due to the level of concentration required to perform this music.

The minimalist line-up and the hyper-focused playing gives the album both a breath-like purity and solemn depth.

Tracklist:
01. Blue
02. Zaraska
03. Cuentro
04. Newrak
05. Eva
06. 7.11.19
07. Anouar
08. Interlude I
09. Interlude II
10. Januar
11. Rocinante
12. Nuuk
13. Arpeggio
14. Interlude III
15. Medeo
16. Westzone

foobar2000 1.4.1 / Dynamic Range Meter 1.1.1
log date: 2022-05-10 13:15:34

––––––––––––––––––––––––––––––––––––––––
Analyzed: Matthias Lindermayr / Sequence
––––––––––––––––––––––––––––––––––––––––

DR Peak RMS Duration Track
––––––––––––––––––––––––––––––––––––––––
DR12 -1.09 dB -18.26 dB 2:42 01-Blue
DR10 -1.31 dB -14.57 dB 1:51 02-Zaraska
DR9 -1.85 dB -14.26 dB 1:43 03-Cuentro
DR10 -1.89 dB -15.54 dB 2:06 04-Newrak
DR8 -3.12 dB -14.86 dB 1:31 05-Eva
DR9 -2.21 dB -14.79 dB 2:12 06-7.11.19
DR9 -1.46 dB -15.60 dB 1:41 07-Anouar
DR13 -2.35 dB -20.74 dB 1:16 08-Interlude I
DR10 -3.05 dB -19.73 dB 1:12 09-Interlude II
DR10 -2.05 dB -16.81 dB 2:16 10-Januar
DR10 -0.50 dB -15.09 dB 1:59 11-Rocinante
DR10 -3.08 dB -18.58 dB 2:59 12-Nuuk
DR9 -3.02 dB -15.84 dB 2:30 13-Arpeggio
DR9 -3.05 dB -16.36 dB 1:13 14-Interlude III
DR9 -0.69 dB -14.35 dB 1:40 15-Medeo
DR10 -3.42 dB -17.95 dB 2:00 16-Westzone
––––––––––––––––––––––––––––––––––––––––

Number of tracks: 16
Official DR value: DR10

Samplerate: 48000 Hz
Channels: 2
Bits per sample: 24
Bitrate: 1382 kbps
Codec: FLAC
================================================================================


Thanks to the Original customer!