Tags
Language
Tags

McCoy Tyner - The Real McCoy (Blue Note Classic Vinyl Series) (1967/2020) [24bit/192kHz]

Posted By: delpotro
McCoy Tyner - The Real McCoy (Blue Note Classic Vinyl Series) (1967/2020) [24bit/192kHz]

McCoy Tyner - The Real McCoy (Blue Note Classic Vinyl Series) (1967/2020)
Vinyl Rip | FLAC (tracks) 24-bit/192 kHz | Time - 37:12 minutes | 1,25 GB | Artwork - 21 MB
Jazz, Post-Bop | Label: Blue Note Records

In 1967, pianist McCoy Tyner was ready for a new start. He had left the seminal John Coltrane Quartet two years prior and moved on from Coltrane’s label Impulse! Records, as well. With his Blue Note debut The Real McCoy, he made his masterpiece and firmly established himself as a creative force of his own. Featuring a world class quartet with Tyner joined by tenor saxophonist Joe Henderson, bassist Ron Carter, and drummer Elvin Jones, the album presented five enduring Tyner originals including “Passion Dance,” “Search for Peace,” and “Blues on the Corner.”

This Blue Note Classic Vinyl Edition is all-analog, mastered by Kevin Gray from the original master tapes, and pressed on 180g vinyl at Optimal.

Tracklist:
A1 – Passion Dance (08:45)
A2 – Contemplation (09:10)
B1 – Four By Five (06:35)
B2 – Search For Peace (06:25)
B3 – Blues On The Corner (06:05)

foobar2000 1.5.5 / Dynamic Range Meter 1.1.1
log date: 2021-03-07 07:59:04

––––––––––––––––––––––––––––––––––––––––
Analyzed: McCoy Tyner / The Real McCoy
––––––––––––––––––––––––––––––––––––––––

DR Peak RMS Duration Track
––––––––––––––––––––––––––––––––––––––––
DR13 -1.12 dB -16.18 dB 8:49 A1-Passion Dance
DR15 -1.35 dB -19.96 dB 9:13 A2-Contemplation
DR13 -1.46 dB -16.58 dB 6:39 B1-Four By Five
DR14 -3.55 dB -22.70 dB 6:32 B2-Search For Peace
DR13 -1.04 dB -16.05 dB 6:00 B3-Blues On The Corner
––––––––––––––––––––––––––––––––––––––––

Number of tracks: 5
Official DR value: DR14

Samplerate: 192000 Hz
Channels: 2
Bits per sample: 24
Bitrate: 4852 kbps
Codec: FLAC
================================================================================

Lineage:

Rega P10 Turntable with Rega P10 PSU > Virgin Vinyl > Rega Apheta 3 Cartridge > PS Audio NuWave Phono Converter ADC > AudioQuest Carbon USB Cable > USB-IN > Audition CC 2019 @ 24bit float, 192kHz capture.


Processing:

24bit wav > Run through Click Repair 3.9.9 at 10/0 on DeClick > Volume Boost +3.64/3.84 DB > Remove DC Bias > Saved as 24bit,192kHz WAV > FLAC > Tagged with Discogs tagger through Foobar.

Scans:

Epson Expression 11000XL -> 16bit 600 DPI with Unsharp Mask -> Color Correction in Photoshop CC 2019 x64 -> 8bit 600DPI PNG.

Thanks to the Original customer!