Tags
Language
Tags
April 2024
Su Mo Tu We Th Fr Sa
31 1 2 3 4 5 6
7 8 9 10 11 12 13
14 15 16 17 18 19 20
21 22 23 24 25 26 27
28 29 30 1 2 3 4

John McLaughlin, Al Di Meola & Paco De Lucia - Friday Night In San Francisco (Remastered Vinyl) (1981/2020) [24bit/96kHz]

Posted By: delpotro
John McLaughlin, Al Di Meola & Paco De Lucia - Friday Night In San Francisco (Remastered Vinyl) (1981/2020) [24bit/96kHz]

John McLaughlin, Al Di Meola & Paco De Lucia - Friday Night In San Francisco (Remastered Vinyl) (1981/2020)
Vinyl Rip | FLAC (tracks) 24-bit/96 kHz | Artwork | Time - 41:09 minutes | 827 MB
Jazz Fusion, Flamenco | Label: Impex Records

Impex Records release mastered from the original master tapes at 45rpm. Limited numbered pressing of 3000.

Mastered by Bernie Grundman Mastering From Original Analog Master Tapes!

Every note.
Every lightning strum.
Every impossibly perfect run.
Every dynamic blast.
Every tonal nuance.
Every staccato reverberation.
Every unexpected moment of towering virtuosity.
Every caught breath.
Every thunderous applause.

Everything you’ve loved about this iconic, reference-defining recording is laid bare, reproduced with stunning fidelity and nuance. Featuring all-analog mastering by Bernie Grundman Mastering and an exclusive foil-stamped jacket for this very special release. This Di Meola-McLaughlin-De Lucia classic could only come from the LP fetishists at Impex Records.

Listen as Impex’s 180g vinyl, spinning at 45 revolutions per minute, reveals everything to your hungry, deep-listening ears. Ready to redefine definitive again.

Friday Night In San Francisco is a 1981 live album by Al Di Meola, John McLaughlin and Paco de Lucia. It was described by jazz author and critic Walter Kolosky as “a musical event that could be compared to the Benny Goodman Band’s performance at Carnegie Hall in 1938…[it] may be considered the most influential of all live acoustic guitar albums. All the tracks except Guardian Angel were recorded live at The Warfield Theatre on December 5, 1980 in San Francisco.

This debut recording on Columbia Records became a landmark recording that surpassed the two million mark in sales. The three virtuosos in the Trio toured together from 1980 through 1983.

Paco de Lucia was a Spanish flamenco guitarist, composer and producer. A leading proponent of the New Flamenco style, he helped legitimize flamenco among the establishment in Spain, and was one of the first flamenco guitarists to have successfully crossed over into other genres of music such as classical and jazz. De Lucia was noted for his fast and fluent finger style runs. His collaborations with guitarists John McLaughlin and Al Di Meola saw him gain wider popularity outside his native Spain.

Al Di Meola is an acclaimed jazz fusion and Latin jazz guitarist, composer, and record producer. With a musical career that has spanned more than three decades, he has become respected as one of the most influential guitarists in jazz to date. Albums such as Friday Night In San Francisco have earned him both artistic and commercial success with a solid fan base throughout the world. A prolific composer and prodigious six-string talent, Di Meola has amassed over 20 albums as a leader while collaborating on a dozen or so others.

John McLaughlin is an English guitarist, bandleader and composer. His music includes many genres of jazz and rock, which he coupled with an interest in Indian classical music to become one of the pioneering figures in fusion. In 2010, guitarist Jeff Beck called him “the best guitarist alive.” In 2003, McLaughlin was ranked 49th in Rolling Stone’s “100 Greatest Guitarists of All Time.” After contributing to several key British groups of the early sixties and making his first solo record, he moved to the US where he played with Tony Williams’ group Lifetime and then with Miles Davis on his landmark electric-jazz fusion albums: In A Silent Way, Bitches Brew, A Tribute To Jack Johnson and On The Corner.

“Loose and spontaneous, this (mainly) live album is a meeting of three of the greatest guitarists in the world for an acoustic summit the likes of which the guitar-playing community rarely sees. Broken up into three duo and two trio performances, Friday Night in San Francisco catches all three players at the peaks of their quite formidable powers.”

Tracklist:
A – Paco De Lucia & Al Di Meola – Mediterranean Sundance/Rio Ancho (11:31)
B – John McLaughlin & Al Di Meola – Short Tales Of The Black Forest (08:41)
C – John McLaughlin & Paco De Lucia – Frevo Rasgado (07:55)
D1 – Paco De Lucia, John McLaughlin & Al Di Meola – Fantasia Suite (08:50)
D2 – Paco De Lucia, John McLaughlin & Al Di Meola – Guardian Angel (04:00)

foobar2000 1.4.1 / Dynamic Range Meter 1.1.1
log date: 2020-11-17 12:11:32

––––––––––––––––––––––––––––––––––––––––
Analyzed: John McLaughlin, Al DiMeola & Paco De Lucia / Friday Night In San Francisco (Impex 45)
––––––––––––––––––––––––––––––––––––––––

DR Peak RMS Duration Track
––––––––––––––––––––––––––––––––––––––––
DR15 -1.14 dB -19.23 dB 11:33 01-Mediterranean Sundance / Rio Ancho
DR16 -1.00 dB -21.97 dB 8:44 02-Short Tales Of The Black Forest
DR17 -1.00 dB -22.91 dB 7:58 03-Frevo Rasgado
DR14 -1.00 dB -19.54 dB 8:53 04-Fantasia Suite
DR14 -2.36 dB -19.50 dB 4:02 05-Guardian Angel
––––––––––––––––––––––––––––––––––––––––

Number of tracks: 5
Official DR value: DR15

Samplerate: 96000 Hz
Channels: 2
Bits per sample: 24
Bitrate: 2829 kbps
Codec: FLAC
================================================================================


VPI Scoutmaster with dual belt driven single flywheel motor on Herbie's Tenderfeet

Trans-Fi Terminator T3 Pro With Tomahawk Armwand (4N Silver Shielded Wire)

Audio-Technica AT150ANV Frankencart
Phoenix Engineering Eagle
Phoenix Engineering RoadRunner
Gingko Cloud 12A Vibration Control Platform
Eden Sound Terrastone Footers

Parks Audio Budgie Tube Phono Preamp with 1964 Holland made large halo getter Amperex 7308 Tubes
Sugarcube SC-2
Tripp Lite Smart Online SU1500RTXLCD2U Double-Conversion UPS

Thanks to the Original customer!