Tags
Language
Tags

Moloko - Statues (Limited 2LP Coloured Vinyl) (2003/2019) [24bit/96kHz]

Posted By: delpotro
Moloko - Statues (Limited 2LP Coloured Vinyl) (2003/2019) [24bit/96kHz]

Moloko - Statues (Limited 2LP Coloured Vinyl) (2003/2019)
Vinyl Rip | FLAC (tracks) 24-bit/96 kHz | Front Cover | Time - 57:24 minutes | 1,2 GB
Electronic, Leftfield, Trip-Hop, Female Vocal | Label: Music On Vinyl

Moloko‘s final album, Statues, will be issued as a limited 2LP coloured vinyl pressing in November. The 2003 album features the top 20 singles singles ‘Familiar Feeling’ and ‘Forever More’ and is the final 2LP coloured vinyl reissue from Music On Vinyl.

Tracklist:
A1 – Familiar Feeling (06:30)
A2 – Come On (04:40)
A3 – Cannot Contain This (05:39)
B1 – Statues (05:23)
B2 – Forever More (07:20)
C1 – Blow X Blow (03:12)
C2 – 100% (05:12)
C3 – The Only Ones (04:13)
D1 – I Want You (05:05)
D2 – Over & Over (09:51)

foobar2000 1.4.1 / Dynamic Range Meter 1.1.1
log date: 2020-11-23 11:29:30

––––––––––––––––––––––––––––––––––––––––
Analyzed: Moloko / Statues
––––––––––––––––––––––––––––––––––––––––

DR Peak RMS Duration Track
––––––––––––––––––––––––––––––––––––––––
DR12 -0.95 dB -14.77 dB 6:31 01-Familiar Feeling
DR13 -0.37 dB -16.20 dB 4:43 02-Come On
DR12 -2.48 dB -16.11 dB 5:42 03-Cannot Contain This
DR11 -4.17 dB -19.02 dB 5:25 04-Statues
DR11 -0.62 dB -13.67 dB 7:22 05-Forever More
DR13 -0.43 dB -15.27 dB 3:14 06-Blow X Blow
DR12 -1.23 dB -15.45 dB 5:12 07-100 percent
DR12 -1.57 dB -15.67 dB 4:13 08-The Only Ones
DR12 -0.44 dB -14.64 dB 5:05 09-I Want You
DR11 -0.48 dB -14.00 dB 9:58 10-Over and Over
––––––––––––––––––––––––––––––––––––––––

Number of tracks: 10
Official DR value: DR12

Samplerate: 96000 Hz
Channels: 2
Bits per sample: 24
Bitrate: 2870 kbps
Codec: FLAC
================================================================================


RCM: Okki Nokki (L’art du son, Clearaudio’s Diamond Cleaner)
TT: Vintage (1982) Yamaha PX-3
Cartridge: Sumiko Black Bird
Phono amp: Audio Research SP15 own tube phono section.
ADC/DAC: RME Fireface UC
Pre Amp: Audio Research SP15
Finals: Opera Consonance 9.9 Mono (Tube)
Speakers: Dali Helikon 400
Connections: MIT Terminator, Audioquest Emerald, Audioquest Quartz
Software: iZotope RX 4 Advanced, Adobe Audition CS 5.5, Twisted Wave 1.9
Super light de-clicking with iZotope, significant clicks manually removing, no de-noising
DR-Analisys before converting to Flac
Converting Wave -> Flac: Twisted Wave 1.9

Thanks to the Original customer!