Tags
Language
Tags

Moloko - Things to Make and Do (Limited Coloured Vinyl) (2000/2019) [24bit/96kHz]

Posted By:
Moloko - Things to Make and Do (Limited Coloured Vinyl) (2000/2019) [24bit/96kHz]

Moloko - Things to Make and Do (Limited Coloured Vinyl) (2000/2019)
Vinyl Rip | FLAC (tracks) 24-bit/96 kHz | Front Cover | Time - 67:58 minutes | 1,41 GB
Electronic, Leftfield, Trip-Hop, Female Vocal | Label: Music On Vinyl

Music on Vinyl continue with their Moloko vinyl reissue campaign with a pink vinyl re-release of Things To Make And Do. Originally issued in 2000, the album featured the electronic music duo’s biggest hit single in ‘The Time Is Now’ which peaked at number two that same year.

Tracklist:
A1 – Radio Moscow (00:24)
A2 – Pure Pleasure Seeker (06:30)
A3 – Absent Minded Friends (04:45)
A4 – Indigo (05:34)
B1 – Being Is Bewildering (04:07)
B2 – Remain The Same (03:41)
B3 – A Drop In The Ocean (01:58)
B4 – Dumb Inc. (04:27)
C1 – The Time Is Now (05:20)
C2 – Mother (04:46)
C3 – It's Your Problem (01:04)
C4 – It's Nothing (05:12)
D1 – Bingo Massacre (00:25)
D2 – Somebody Somewhere (05:42)
D3 – Just You And Me Dancing (01:13)
D4 – If You Have A Cross To Bear You May As Well Use It As A Crutch (02:56)
D5 – Keep Stepping (00:24)
D6 – Sing It Back (Boris Musical Mix) (09:18)

foobar2000 1.4.1 / Dynamic Range Meter 1.1.1
log date: 2020-11-23 11:31:29

––––––––––––––––––––––––––––––––––––––––
Analyzed: Moloko / Things To Make And Do
––––––––––––––––––––––––––––––––––––––––

DR Peak RMS Duration Track
––––––––––––––––––––––––––––––––––––––––
DR15 -18.80 dB -36.96 dB 0:26 01-Radio Moscow
DR12 -0.68 dB -14.37 dB 6:31 02-Pure Pleasure Seeker
DR12 -0.64 dB -14.96 dB 4:45 03-Absent Minded Friends
DR12 -1.12 dB -14.91 dB 5:37 04-Indigo
DR11 -2.84 dB -18.11 dB 4:08 05-Being Is Bewildering
DR11 -1.05 dB -14.38 dB 3:41 06-Remain The Same
DR13 -2.23 dB -21.07 dB 1:59 07-A Drop In The Ocean
DR11 -0.50 dB -15.21 dB 4:27 08-Dumb Inc.
DR13 -1.48 dB -16.84 dB 5:22 09-The Time Is Now
DR13 -1.68 dB -16.00 dB 4:42 10-Mother
DR14 -6.48 dB -22.34 dB 1:07 11-It's Your Problem
DR16 -1.36 dB -18.71 dB 5:12 12-It's Nothing
DR15 -4.52 dB -22.34 dB 0:32 13-Bingo Massacre
DR13 -0.32 dB -16.04 dB 5:42 14-Somebody Somewhere
DR14 -4.35 dB -21.02 dB 1:11 15-Just You And Me Dancing
DR11 -0.29 dB -14.96 dB 2:54 16-If You Have A Cross To Bear You May As Well Use It As A Crutch
DR17 -9.76 dB -32.29 dB 0:22 17-Keep Stepping
DR12 -2.33 dB -15.63 dB 9:21 18-Sing It Back (Boris Musical Mix)
––––––––––––––––––––––––––––––––––––––––

Number of tracks: 18
Official DR value: DR13

Samplerate: 96000 Hz
Channels: 2
Bits per sample: 24
Bitrate: 3011 kbps
Codec: FLAC
================================================================================


RCM: Okki Nokki (L’art du son, Clearaudio’s Diamond Cleaner)
TT: Vintage (1982) Yamaha PX-3
Cartridge: Sumiko Black Bird
Phono amp: Audio Research SP15 own tube phono section.
ADC/DAC: RME Fireface UC
Pre Amp: Audio Research SP15
Finals: Opera Consonance 9.9 Mono (Tube)
Speakers: Dali Helikon 400
Connections: MIT Terminator, Audioquest Emerald, Audioquest Quartz
Software: iZotope RX 4 Advanced, Adobe Audition CS 5.5, Twisted Wave 1.9
Super light de-clicking with iZotope, significant clicks manually removing, no de-noising
DR-Analisys before converting to Flac
Converting Wave -> Flac: Twisted Wave 1.9

Thanks to the Original customer!