Tags
Language
Tags

Mono - Hymn to the Immortal Wind (Anniversary Edition) (2009/2019) [Official Digital Download]

Posted By: delpotro
Mono - Hymn to the Immortal Wind (Anniversary Edition) (2009/2019) [Official Digital Download]

Mono - Hymn to the Immortal Wind (Anniversary Edition) (2009/2019)
FLAC (tracks) 24-bit/44,1 kHz | Front Cover | Time - 66:52 minutes | 724 MB
Post-Rock, Art Rock | Label: Temporary Residence Limited, Official Digital Download

To commemorate the 20th anniversary of MONO – and the 10th anniversary of their most iconic album – Temporary Residence Ltd. proudly presents Hymn to the Immortal Wind – Anniversary Edition. Beautifully remastered from the original analog master tapes by Bob Weston at Chicago Mastering Service, this super deluxe reissue sounds, looks, and feels more pure and powerful than ever before.

Tracklist:
1. Ashes in the Snow (11:44)
2. Burial at Sea (10:39)
3. Silent Flight, Sleeping Dawn (06:00)
4. Pure as Snow (Trails of the Winter Storm) (11:26)
5. Follow the Map (03:54)
6. The Battle to Heaven (12:51)
7. Everlasting Light (10:18)

foobar2000 1.4.1 / Dynamic Range Meter 1.1.1
log date: 2020-11-27 12:30:02

––––––––––––––––––––––––––––––––––––––––
Analyzed: Mono / Hymn to the Immortal Wind (Anniversary Edition)
––––––––––––––––––––––––––––––––––––––––

DR Peak RMS Duration Track
––––––––––––––––––––––––––––––––––––––––
DR7 -0.28 dB -11.42 dB 11:44 01-Ashes in the Snow (Remastered)
DR8 -0.26 dB -12.06 dB 10:39 02-Burial at Sea (Remastered)
DR11 -1.25 dB -16.24 dB 6:00 03-Silent Flight, Sleeping Dawn (Remastered)
DR8 -0.32 dB -12.30 dB 11:26 04-Pure as Snow (Trails of the Winter Storm) (Remastered)
DR10 -0.41 dB -14.84 dB 3:54 05-Follow the Map (Remastered)
DR7 -0.23 dB -10.84 dB 12:51 06-The Battle to Heaven (Remastered)
DR7 -0.26 dB -10.95 dB 10:18 07-Everlasting Light (Remastered)
––––––––––––––––––––––––––––––––––––––––

Number of tracks: 7
Official DR value: DR8

Samplerate: 44100 Hz
Channels: 2
Bits per sample: 24
Bitrate: 1521 kbps
Codec: FLAC
================================================================================


Thanks to the Original customer!