Tags
Language
Tags

Mouse On Mars - AAI (2021) [Official Digital Download]

Posted By: delpotro
Mouse On Mars - AAI (2021) [Official Digital Download]

Mouse On Mars - AAI (2021)
FLAC (tracks) 24-bit/44,1 kHz | Front Cover | Time - 62:03 minutes | 692 MB
Electronic, IDM, Leftfield | Label: Thrill Jockey, Official Digital Download

Mouse on Mars, the Berlin-based duo of Jan St. Werner and Andi Toma, approach electronic music with an inexhaustible curiosity and unparalleled ingenuity. Operating in their unique orbit within dance music’s nebulous echosystem, the duo’s hyper-detailed productions are inventive, groundbreaking but always possessing a signature joyful experimentation. A genre-less embrace of cutting-edge technologies have ensured that each Mouse on Mars release sounds strikingly modern, a fact made more remarkable when one reflects on the duo’s 25 years of making music. New album AAI (Anarchic Artificial Intelligence) takes Toma and Werner’s fascination with technology and undogmatic exploration a quantum leap further. Collaborating with writer and scholar Louis Chude-Sokei, a collective of computer programmers and longtime Mouse On Mars collaborator/percussionist Dodo NKishi, the duo explores artificial intelligence as both a narrative framework and compositional tool, summoning their most explicitly science-fiction work to date.

AAI compiles some of the most immediate and gripping music in Mouse on Mars’ extensive catalogue. Emerging from a primordial ooze of rolling bass and skittering electronics, hypnotic polyrhythms and pulsing synthesizers propel the listener across the record’s expanse. Hidden in the duo’s hyper-detailed productions is a kind of meta-narrative. Working with AI tech collective Birds on Mars and former Soundcloud programmers Ranny Keddo and Derrek Kindle, the duo collaborated on the creation of bespoke software capable of modelling speech. What appears to be Louis Chude-Sokei narrating through the story is in fact the AI speaking. Text and voice from Chude-Sokei and DJ/producer Yağmur Uçkunkaya were fed into the software as a model, allowing Toma and Werner to control parameters like speed or mood, thereby creating a kind of speech instrument they could control and play as they would a synthesizer. The album’s narrative is quite literally mirrored in the music - the sound of an artificial intelligence growing, learning and speaking. Artwork was provided by the inventor of the computer graphics language Processing, Casey Reas, a further exploration of technology’s application in the context of art.

In Chude-Sokei’s text, as machine learning advances, robots begin to develop language, conscience, empathy - “anarchic” and unpredictable qualities. Drawing parallels between the evolution of human and machine, AAI uses technology as a lens to examine deep philosophical questions. The question of how we use technology and world resources feels particularly poignant and timely as we head into 2021. AAI posits that we must embrace AI and technology as a collaborator to break out of our current cultural and moral stagnation, and to ensure our survival as a species. As Werner explains: “AI is capable of developing qualities that we attach to humans, like empathy, imperfection and distraction, which are a big part of creativity. We need to get past the old paranoia that fears machines as the other, as competitors who will do things faster or better, because that just keeps us stuck in our selfishness, fear and xenophobia. Machines can open up new concepts of life, and expand our definitions of being human.“

Tracklist:
1. Engineering Systems (00:22)
2. The Latent Space (06:26)
3. Speech And Ambulation (07:06)
4. Thousand To One (05:31)
5. Walking And Talking (06:19)
6. Youmachine (04:08)
7. Doublekeyrock (02:25)
8. Machine Rights (01:42)
9. Go Tick (04:20)
10. The Fear Of Machines (01:43)
11. Artificial Authentic (03:35)
12. Machine Perspective (00:43)
13. Cut That Fishernet (05:31)
14. Tools Use Tools (00:31)
15. Loose Tools (01:02)
16. Seven Months (02:31)
17. Paymig (00:47)
18. Borrow Signs (01:50)
19. New Definitions (04:15)
20. New Life Always Announces Itself Through Sound (01:16)

foobar2000 1.4.1 / Dynamic Range Meter 1.1.1
log date: 2021-04-29 01:25:54

––––––––––––––––––––––––––––––––––––––––
Analyzed: Mouse On Mars / AAI
––––––––––––––––––––––––––––––––––––––––

DR Peak RMS Duration Track
––––––––––––––––––––––––––––––––––––––––
DR12 -1.72 dB -17.09 dB 0:22 01-Engineering Systems
DR7 -0.21 dB -10.11 dB 6:26 02-The Latent Space
DR10 -0.66 dB -14.06 dB 7:06 03-Speech And Ambulation
DR9 -0.45 dB -10.99 dB 5:31 04-Thousand To One
DR7 -0.52 dB -9.70 dB 6:19 05-Walking And Talking
DR7 -0.59 dB -8.55 dB 4:08 06-Youmachine
DR8 -0.55 dB -10.34 dB 2:25 07-Doublekeyrock
DR10 -0.63 dB -14.10 dB 1:42 08-Machine Rights
DR5 -0.58 dB -7.58 dB 4:20 09-Go Tick
DR12 -0.68 dB -15.65 dB 1:43 10-The Fear Of Machines
DR6 -0.22 dB -8.94 dB 3:35 11-Artificial Authentic
DR13 -1.05 dB -16.46 dB 0:43 12-Machine Perspective
DR10 -0.56 dB -12.40 dB 5:31 13-Cut That Fishernet
DR11 -1.61 dB -13.44 dB 0:31 14-Tools Use Tools
DR10 -1.53 dB -15.52 dB 1:02 15-Loose Tools
DR9 -0.54 dB -12.20 dB 2:31 16-Seven Months
DR11 -0.72 dB -14.44 dB 0:47 17-Paymig
DR10 -0.49 dB -13.55 dB 1:50 18-Borrow Signs
DR8 -0.21 dB -9.66 dB 4:15 19-New Definitions
DR12 -1.67 dB -17.14 dB 1:16 20-New Life Always Announces Itself Through Sound
––––––––––––––––––––––––––––––––––––––––

Number of tracks: 20
Official DR value: DR9

Samplerate: 44100 Hz
Channels: 2
Bits per sample: 24
Bitrate: 1567 kbps
Codec: FLAC
================================================================================


Thanks to the Original customer!