Nazih Borish - Roots of Strings: A Musical Journey with the Arabic Oud (2021) [Official Digital Download 24/96]

Posted By: delpotro
Nazih Borish - Roots of Strings: A Musical Journey with the Arabic Oud (2021) [Official Digital Download 24/96]

Nazih Borish - Roots of Strings: A Musical Journey with the Arabic Oud (2021)
FLAC (tracks) 24-bit/96 kHz | Front Cover & Digital Booklet | Time - 55:16 minutes | 993 MB
World | Label: Analekta, Official Digital Download

Music is peace. It transcends the boundaries of time and space, colours, and races to settle restless hearts wherever they are. It is as pure and innocent as the truth. Hence, when a musician comes into the world, a seed of peace is planted. So, let’s eliminate barriers, open various music cultures to each other, teach them and learn about them to enjoy a world of love and peace. A creative endeavour by nature, music is therefore not constrained by its roots nor by the people from whom it originates. Music is a universal language that awakens the conscience. It is the means through which humans seek serenity and through which music cultures across the world should connect, merge and engage in dialogue. This is precisely what the composer embodies here, melding his authentic oriental style with others that have infl uenced him, to offer us a multifl avoured drink, a toast to peace and harmony. The oud is a letter of this great alphabet. It conveys its authenticity and continues to delight listeners as it did in the past. In addition to the diversity it can bring, it is not surprising that the oud interacts and dialogues so well with the double bass and percussion, for it is considered as the ancestor of many stringed instruments. The chords that emanate from it are musical words that fly on wings to travel into hearts around the world, carrying with them messages of peace. Human beings are inherently inclined towards peace. Because music is one manifestation of this peace, it is the language that makes its way into the heart, without permission, bypassing borders, colours and ethnicities. An invitation to intercultural dialogue, music is an appeal to fraternity and peace. This is embodied in the work of composer and musician Nazih Borish, whose fi ngers dance on the strings of his oud, unleashing it to speak in its own language and tell the story of the Roots of Strings.

Tracklist:
1. Nazihawand (Nahawand taksim) (03:30)
2. Roots of Strings (Nahawand samai) (07:09)
3. Ataba (Bayat taksim) (03:58)
4. Ali Baba Dance (06:44)
5. Bab touma (Rast taksim) (03:32)
6. Damasrose (Rast samai) (05:30)
7. Missyoulogist (Saba zamzama taksim) (03:24)
8. 2011 (05:24)
9. Take off (03:07)
10. Freak one’s (07:53)
11. Sepia (04:59)

foobar2000 1.4.1 / Dynamic Range Meter 1.1.1
log date: 2021-06-09 15:06:59

––––––––––––––––––––––––––––––––––––––––
Analyzed: Nazih Borish / Roots of Strings: A Musical Journey with the Arabic Oud
––––––––––––––––––––––––––––––––––––––––

DR Peak RMS Duration Track
––––––––––––––––––––––––––––––––––––––––
DR13 -0.51 dB -16.31 dB 3:31 01-Nazihawand (Nahawand taksim)
DR11 -0.51 dB -12.79 dB 7:10 02-Roots of Strings (Nahawand samai)
DR12 -0.51 dB -15.54 dB 3:58 03-Ataba (Bayat taksim)
DR9 -0.51 dB -12.09 dB 6:45 04-Ali Baba Dance
DR11 -0.51 dB -14.04 dB 3:32 05-Bab touma (Rast taksim)
DR10 -0.51 dB -11.69 dB 5:31 06-Damasrose (Rast samai)
DR13 -0.52 dB -16.70 dB 3:24 07-Missyoulogist (Saba zamzama taksim)
DR10 -0.51 dB -12.53 dB 5:25 08-2011
DR10 -0.51 dB -11.95 dB 3:08 09-Take off
DR11 -0.51 dB -14.68 dB 7:54 10-Freak one’s
DR13 -0.52 dB -17.48 dB 4:59 11-Sepia
––––––––––––––––––––––––––––––––––––––––

Number of tracks: 11
Official DR value: DR11

Samplerate: 96000 Hz
Channels: 2
Bits per sample: 24
Bitrate: 2298 kbps
Codec: FLAC
================================================================================


Thanks to the Original customer!