Tags
Language
Tags

Niko Tzoukmanis - Hope Is The Sister Of Despair (2013/2020) [Official Digital Download]

Posted By: delpotro
Niko Tzoukmanis - Hope Is The Sister Of Despair (2013/2020) [Official Digital Download]

Niko Tzoukmanis - Hope Is The Sister Of Despair (2013/2020)
FLAC (tracks) 24-bit/44,1 kHz | Front Cover | Time - 76:22 minutes | 734 MB
Electronic, Ambient, Techno | Label: Libreville Records, Official Digital Download

On his debut solo album "Hope Is The Sister Of Despair" under the alias Microphase, Niko Tzoukmanis clearly confesses his roots in 90s ambient techno, UK electronica as well as the techno sound of Detroit. He creates unique sound spheres and melodies that won't leave the ear canal after repeated listens. "Lost In Space" is a very epic track which lives up to its title and takes enough time to build up a tension that is penetrated by breathtaking dystopian sounds. "Shining Star" is another highlight that is dedicated to the melodic Detroit sound without using a kick drum. The blissful "Relief" has a stunning melody and harmonies, while "Free Hugs" turns toward the pure beauty of sound. "The End" has a slightly tragical tone and closes a coherent and harmonic album.

Tracklist:
1. Blue Valentine (04:51)
2. Raindrops (06:59)
3. Disorder (06:53)
4. Green Belt (06:12)
5. Floating Free (07:33)
6. Free Hugs (06:13)
7. Twinkle (06:29)
8. Relief (07:51)
9. Eastern Mantra (05:31)
10. 24 Hours (09:46)
11. The End (08:08)

foobar2000 1.4.1 / Dynamic Range Meter 1.1.1
log date: 2021-01-16 11:44:55

––––––––––––––––––––––––––––––––––––––––
Analyzed: Niko Tzoukmanis / Hope is the Sister of Despair
––––––––––––––––––––––––––––––––––––––––

DR Peak RMS Duration Track
––––––––––––––––––––––––––––––––––––––––
DR10 -0.99 dB -12.51 dB 4:52 01-Blue Valentine
DR9 -0.98 dB -11.47 dB 6:59 02-Raindrops
DR9 -0.98 dB -11.17 dB 6:53 03-Disorder
DR9 -0.98 dB -10.57 dB 6:12 04-Green Belt
DR9 -0.99 dB -11.32 dB 7:30 05-Floating Free
DR8 -1.01 dB -10.05 dB 6:13 06-Free Hugs
DR9 -0.98 dB -11.34 dB 6:27 07-Twinkle
DR9 -1.01 dB -12.10 dB 7:51 08-Relief
DR9 -0.98 dB -10.96 dB 5:31 09-Eastern Mantra
DR8 -0.98 dB -10.90 dB 9:47 10-24 Hours
DR11 -0.98 dB -12.84 dB 8:08 11-The End
––––––––––––––––––––––––––––––––––––––––

Number of tracks: 11
Official DR value: DR9

Samplerate: 44100 Hz
Channels: 2
Bits per sample: 24
Bitrate: 1364 kbps
Codec: FLAC
================================================================================


Thanks to the Original customer!