Tags
Language
Tags

Pentatonix - The Best Of Pentatonix Christmas (2019) [Official Digital Download]

Posted By: El Misha
Pentatonix - The Best Of Pentatonix Christmas (2019) [Official Digital Download]

Pentatonix - The Best Of Pentatonix Christmas (2019)
FLAC (tracks) 24-bit/44.10 kHz | Time - 01:03:00 | 721 MB
Studio Master, Official Digital Download | Artwork: Front cover

New for 2019 from 3 time Grammy Award winning and multi-platinum selling acapella group Pentatonix, comes The Best Of Pentatonix Christmas. The best-of album will feature four new songs, in addition to the quintet's biggest and best-selling songs and collaborations from their past 4 holiday albums.



Tracklist:

01. Deck The Halls
02. Carol of the Bells
03. God Only Knows
04. Hallelujah
05. Dance of the Sugar Plum Fairy
06. Mary, Did You Know?
07. Joyful, Joyful
08. Do You Hear What I Hear?
09. Little Drummer Boy
10. God Rest Ye Merry Gentlemen
11. Winter Wonderland / Don't Worry Be Happy
12. White Winter Hymnal (Fleet Foxes Cover)
13. Grown-Up Christmas List
14. You're A Mean One, Mr. Grinch
15. When You Believe (with Maren Morris)
16. Here Comes Santa Claus
17. How Great Thou Art
18. That's Christmas to Me
19. Coldest Winter (Bobby Alt Drum Mix)

foobar2000 1.4 / Dynamic Range Meter 1.1.1
log date: 2021-12-20 20:59:05

––––––––––––––––––––––––––––––––––––––––
Analyzed: Pentatonix / The Best Of Pentatonix Christmas
––––––––––––––––––––––––––––––––––––––––

DR Peak RMS Duration Track
––––––––––––––––––––––––––––––––––––––––
DR7 -0.01 dB -8.54 dB 2:46 01-Deck The Halls
DR6 -0.01 dB -9.96 dB 3:16 02-Carol of the Bells
DR7 -0.01 dB -9.52 dB 2:49 03-God Only Knows
DR6 -0.01 dB -8.59 dB 4:29 04-Hallelujah
DR8 -0.01 dB -11.96 dB 2:07 05-Dance of the Sugar Plum Fairy
DR6 0.00 dB -9.50 dB 3:23 06-Mary, Did You Know?
DR6 -0.01 dB -7.75 dB 3:54 07-Joyful, Joyful
DR6 -0.01 dB -7.54 dB 3:34 08-Do You Hear What I Hear?
DR4 -0.01 dB -6.70 dB 4:13 09-Little Drummer Boy
DR9 -0.01 dB -12.49 dB 2:30 10-God Rest Ye Merry Gentlemen
DR8 -0.01 dB -9.69 dB 3:28 11-Winter Wonderland / Don't Worry Be Happy
DR10 -0.01 dB -11.92 dB 2:48 12-White Winter Hymnal (Fleet Foxes Cover)
DR7 -0.01 dB -9.24 dB 4:43 13-Grown-Up Christmas List
DR7 -0.01 dB -8.68 dB 3:00 14-You're A Mean One, Mr. Grinch
DR7 -0.01 dB -8.40 dB 3:53 15-When You Believe (with Maren Morris)
DR7 -0.01 dB -7.98 dB 2:37 16-Here Comes Santa Claus
DR7 -0.01 dB -9.79 dB 4:10 17-How Great Thou Art
DR9 -0.01 dB -11.82 dB 3:04 18-That's Christmas to Me
DR7 -0.01 dB -10.57 dB 2:29 19-Coldest Winter (Bobby Alt Drum Mix)
––––––––––––––––––––––––––––––––––––––––

Number of tracks: 19
Official DR value: DR7

Samplerate: 44100 Hz
Channels: 2
Bits per sample: 24
Bitrate: 1562 kbps
Codec: FLAC
================================================================================



Thanks to the Original customer!