Tags
Language
Tags

Peter Gregson - Untitled for 7 Dancers (2021) [Official Digital Download 24/96]

Posted By: delpotro
Peter Gregson - Untitled for 7 Dancers (2021) [Official Digital Download 24/96]

Peter Gregson - Untitled for 7 Dancers (2021)
FLAC (tracks) 24-bit/96 kHz | Front Cover | Time - 24:42 minutes | 489 MB
Classical Crossover | Label: Deutsche Grammophon, Official Digital Download

You never know what you’ve got until it’s gone. So goes the idiom describing our lack of appreciation for people and things until we lose them. And what about music? What about our experiences? Over a year into a pandemic, and I’m certainly missing live shows. It’s not that I truly enjoyed sitting on some wooden hard pews, nodding away close to midnight after a very long day, straining to capture a glimpse in the near-complete dark. And I definitely do not miss the spilt beer, the chirping of telephones, and the insistent clamour of talking over the audible tale. But I do miss the moment of music creation, its resonant forms, the player’s connection with the sound of their instrument, and, most importantly, the invisible conversation between the audience and the artist. These thoughts are renewed as I rewatch this video, where the British composer and cellist (and even a friend), Peter Gregson, sits on the stage and plays into the empty theatre, its hollow vacancy the sole witness to feelings expressed. For this piece, “Patina”, the same as the title of his upcoming new album on Deutsche Grammophon, Gregson zooms in on the instrument, stripping away at the layers of sound, until you are left all alone, surrounded by the inaudible absence. And when your mind plays a trick by filling the void, inventing the melodies no longer in music, you too become a performer, playing with Gregson along side by side, on the stage of this moment facing the future of the unknown.

Tracklist:
1. Feel (05:34)
2. Acceptance (05:34)
3. Propulsion To Flight (03:24)
4. Landing (06:28)
5. Reflection (03:40)

foobar2000 1.4.1 / Dynamic Range Meter 1.1.1
log date: 2021-06-18 16:25:30

––––––––––––––––––––––––––––––––––––––––
Analyzed: Peter Gregson / Untitled for 7 Dancers
––––––––––––––––––––––––––––––––––––––––

DR Peak RMS Duration Track
––––––––––––––––––––––––––––––––––––––––
DR8 -2.32 dB -14.16 dB 5:34 01-Feel
DR11 -0.12 dB -16.58 dB 5:35 02-Acceptance
DR7 -0.12 dB -14.29 dB 3:25 03-Propulsion To Flight
DR10 -0.12 dB -13.61 dB 6:28 04-Landing
DR9 -9.13 dB -22.83 dB 3:40 05-Reflection
––––––––––––––––––––––––––––––––––––––––

Number of tracks: 5
Official DR value: DR9

Samplerate: 96000 Hz
Channels: 2
Bits per sample: 24
Bitrate: 2738 kbps
Codec: FLAC
================================================================================


Thanks to the Original customer!