Tags
Language
Tags

Resavoir - Resavoir (2019) [Official Digital Download]

Posted By: delpotro
Resavoir - Resavoir (2019) [Official Digital Download]

Resavoir - Resavoir (2019)
FLAC (tracks) 24-bit/44,1 kHz | Front Cover | Time - 29:49 minutes | 314 MB
Nu Jazz, Soul Jazz, Spiritual Jazz | Label: International Anthem, Official Digital Download

Riding the ripples of their debut single “Escalator” (which BBC’s Gilles Peterson called “a winner,” and Supreme Standards’ Tina Edwards likened to “Radiohead on a Jazz trip”), Chicago collective Resavoir return with their first full length effort. The self-titled album presents a juicy suite of elegantly-orchestrated lo-fi jazz instrumentals germinated from home recording experiments by the group’s producer/arranger Will Miller.

Applying a compositional approach attributable to his experience producing hip-hop beats as much as his studies at Oberlin Conservatory, Miller built melodic sketches on foundations of samples & loops before bringing pieces to the group for collective development. After integrating recordings of the full band into his home-produced impressions (not unlike IARC predecessors Jeff Parker and Makaya McCraven), he over-dubbed another dozen friends into the mix (including Brandee Younger, Sen Morimoto, Carter Lang, Knox Fortune and Macie Stewart) before finalizing the arrangements.

In Miller’s modest editing room, Resavoir grew from experiment into epic opus recalling the lush, psychedelic soul jazz orchestrations of David Axelrod & Charles Stepney… but in the sampled-laden style of Yesterday’s New Quintet, Broadcast, or Thundercat, with a lyrical affinity for minimalism & texturalism, like trumpeter/composers Jon Hassell & Justin Walter.

Tracklist:
1. Intro (01:24)
2. Resavoir (05:46)
3. Taking Flight (feat. Brandee Younger) (03:38)
4. Plantasy (04:20)
5. Clouds (01:11)
6. Woah (04:09)
7. Illusion (02:50)
8. Escalator (feat. Sen Morimoto) (04:05)
9. LML (02:26)

foobar2000 1.4.1 / Dynamic Range Meter 1.1.1
log date: 2021-06-19 13:03:58

––––––––––––––––––––––––––––––––––––––––
Analyzed: Resavoir / Resavoir
––––––––––––––––––––––––––––––––––––––––

DR Peak RMS Duration Track
––––––––––––––––––––––––––––––––––––––––
DR11 -3.99 dB -18.15 dB 1:24 01-Intro
DR11 -1.02 dB -13.75 dB 5:46 02-Resavoir
DR9 -1.01 dB -12.70 dB 3:38 03-Taking Flight (feat. Brandee Younger)
DR11 -1.02 dB -14.68 dB 4:20 04-Plantasy
DR10 -1.43 dB -15.02 dB 1:11 05-Clouds
DR9 -1.02 dB -11.58 dB 4:09 06-Woah
DR10 -1.01 dB -14.21 dB 2:50 07-Illusion
DR9 -1.01 dB -11.66 dB 4:05 08-Escalator (feat. Sen Morimoto)
DR11 -1.02 dB -13.78 dB 2:26 09-LML
––––––––––––––––––––––––––––––––––––––––

Number of tracks: 9
Official DR value: DR10

Samplerate: 44100 Hz
Channels: 2
Bits per sample: 24
Bitrate: 1479 kbps
Codec: FLAC
================================================================================


Thanks to the Original customer!