Richard Durrant - Travels With My Guitar (2021) [Official Digital Download]

Posted By: El Misha
Richard Durrant - Travels With My Guitar (2021) [Official Digital Download]

Richard Durrant - Travels With My Guitar (2021)
FLAC (tracks) 24-bit/48 kHz | Time - 40:42 | 417 MB
Studio Master, Official Digital Download | Artwork: Front cover

Richard Durrant has performed tirelessly since his graduation from the Royal College of Music & London debut in 1986. He plays c.70 concerts each year at home and abroad and has written, arranged and discovered much new guitar repertoire. Performing, composing, promoting music literacy and breaking down musical barriers has been his life’s work.



Tracklist:

01. Richard Durrant - Aspects Of Motion
02. Richard Durrant - Kinetic Pizzicato
03. Richard Durrant - Sunrise Dawn
04. Richard Durrant - Tracing Starlight
05. Richard Durrant - Sunshine Traveller
06. Richard Durrant - Gently Flow
07. Richard Durrant - Days Of Sunshine
08. Richard Durrant - Flights Of Light
09. Richard Durrant - Acoustic Viscosity
10. Richard Durrant - A Classical Harmony
11. Richard Durrant - To Search Beyond
12. Richard Durrant - Echoes From The Past
13. Richard Durrant - A Will To Succeed
14. Richard Durrant - Turning The Pages
15. Richard Durrant - Wide Blue Horizons
16. Richard Durrant - The Highest Hills
17. Richard Durrant - Sunshine Superdays
18. Richard Durrant - All Aboard The Ukulele Express

foobar2000 1.4 / Dynamic Range Meter 1.1.1
log date: 2021-06-11 09:49:53

––––––––––––––––––––––––––––––––––––––––
Analyzed: Richard Durrant / Travels With My Guitar
––––––––––––––––––––––––––––––––––––––––

DR Peak RMS Duration Track
––––––––––––––––––––––––––––––––––––––––
DR9 -0.20 dB -10.59 dB 3:10 01-Aspects Of Motion
DR10 -0.20 dB -13.14 dB 1:43 02-Kinetic Pizzicato
DR8 -2.50 dB -12.48 dB 1:52 03-Sunrise Dawn
DR12 -0.20 dB -14.53 dB 1:49 04-Tracing Starlight
DR8 -0.20 dB -10.31 dB 1:58 05-Sunshine Traveller
DR9 -0.20 dB -11.16 dB 2:58 06-Gently Flow
DR8 -0.20 dB -11.18 dB 2:09 07-Days Of Sunshine
DR12 -0.20 dB -14.04 dB 2:13 08-Flights Of Light
DR11 -1.85 dB -16.57 dB 1:30 09-Acoustic Viscosity
DR13 -0.20 dB -14.62 dB 2:51 10-A Classical Harmony
DR12 -0.20 dB -16.32 dB 2:28 11-To Search Beyond
DR15 -0.77 dB -19.53 dB 2:04 12-Echoes From The Past
DR10 -0.20 dB -12.44 dB 2:40 13-A Will To Succeed
DR10 -0.20 dB -13.63 dB 1:49 14-Turning The Pages
DR11 -0.20 dB -14.83 dB 3:18 15-Wide Blue Horizons
DR11 -0.21 dB -13.58 dB 2:43 16-The Highest Hills
DR11 -0.20 dB -13.15 dB 1:12 17-Sunshine Superdays
DR10 -0.20 dB -11.84 dB 2:25 18-All Aboard The Ukulele Express
––––––––––––––––––––––––––––––––––––––––

Number of tracks: 18
Official DR value: DR11

Samplerate: 48000 Hz
Channels: 2
Bits per sample: 24
Bitrate: 1550 kbps
Codec: FLAC
================================================================================



Thanks to the Original customer!