Robert Rich - Neurogenesis (2020) [Official Digital Download 24/96]

Posted By: delpotro
Robert Rich - Neurogenesis (2020) [Official Digital Download 24/96]

Robert Rich - Neurogenesis (2020)
FLAC (tracks) 24-bit/96 kHz | Front Cover & Digital Booklet | Time - 48:04 minutes | 912 MB
Progressive Electronic, Ambient | Label: Soundscape, Official Digital Download

Neurogenesis expands the sound of modular analog and digital synthesizers into a bright and dynamic landscape, layered with shimmering kaleidoscopic microtonal patterns, pulsating, vibrating and evolving. Is this the sound of neurons growing?

Tracklist:
1. Neurogenesis (09:02)
2. Convergent (08:06)
3. Proximal (06:13)
4. Connective (07:55)
5. Dendritic (04:34)
6. Arcadian (05:23)
7. Erinacea (06:48)

foobar2000 1.4.1 / Dynamic Range Meter 1.1.1
log date: 2020-12-02 21:12:17

––––––––––––––––––––––––––––––––––––––––
Analyzed: Robert Rich / Neurogenesis
––––––––––––––––––––––––––––––––––––––––

DR Peak RMS Duration Track
––––––––––––––––––––––––––––––––––––––––
DR9 -0.42 dB -11.66 dB 9:03 01-Neurogenesis
DR10 -0.42 dB -13.01 dB 8:07 02-Convergent
DR12 -0.42 dB -14.08 dB 6:14 03-Proximal
DR10 -0.42 dB -12.82 dB 7:55 04-Connective
DR9 -0.42 dB -12.02 dB 4:35 05-Dendritic
DR10 -1.27 dB -13.59 dB 5:23 06-Arcadian
DR9 -0.42 dB -10.91 dB 6:48 07-Erinacea
––––––––––––––––––––––––––––––––––––––––

Number of tracks: 7
Official DR value: DR10

Samplerate: 96000 Hz
Channels: 2
Bits per sample: 24
Bitrate: 2700 kbps
Codec: FLAC
================================================================================


Thanks to the Original customer!