Tags
Language
Tags

Rosie Carney - The Bends (2020) [Official Digital Download]

Posted By: delpotro
Rosie Carney - The Bends (2020) [Official Digital Download]

Rosie Carney - The Bends (2020)
FLAC (tracks) 24-bit/44,1 kHz | Front Cover | Time - 41:36 minutes | 427 MB
Indie Folk, Singer-Songwriter, Female Vocal | Label: Ultra Records, Official Digital Download

Like many of us, Rosie Carney was forced to change her plans when the pandemic hit earlier this year. Instead of entering the studio for recording sessions, the folk artist retreated to her parent’s house in Ireland to be close to family and seek proper treatment for her mental health, which was suffering on account of the global crisis. But her musical brain never stopped turning.

While quarantining in Ireland, Carney decided to cover Radiohead classic “Fake Plastic Trees”. However, when she saw how many people had already done so, she pivoted to a more ambitious undertaking: tackling The Bends in its glorious entirety. The resulting covers album is due for arrival on December 11th, but Carney is offering a peek today with her version of “Bones”.

“I recorded ‘Bones’ the day before I flew home to spend the rest of lockdown with my family in Ireland,” Carney explained in a statement. “I listened to it nonstop as I travelled from my flat in London into the middle of nowhere. Every single line resonated with me on such a deep level and after this one I became far more confident in how I wanted the songs to sound if they were mine.”

Tracklist:
1. Planet Telex (03:38)
2. The Bends (04:15)
3. High and Dry (03:52)
4. Fake Plastic Trees (04:26)
5. Bones (02:58)
6. (Nice Dream) (03:59)
7. Just (02:58)
8. My Iron Lung (02:12)
9. Bullet Proof … I Wish I Was (02:58)
10. Black Star (03:39)
11. Sulk (02:46)
12. Street Spirit (Fade Out) (03:49)

foobar2000 1.4.1 / Dynamic Range Meter 1.1.1
log date: 2020-12-11 13:29:10

––––––––––––––––––––––––––––––––––––––––
Analyzed: Rosie Carney / The Bends
––––––––––––––––––––––––––––––––––––––––

DR Peak RMS Duration Track
––––––––––––––––––––––––––––––––––––––––
DR10 0.00 dB -13.51 dB 3:39 01-Planet Telex
DR9 0.00 dB -12.34 dB 4:16 02-The Bends
DR10 0.00 dB -12.89 dB 3:52 03-High and Dry
DR9 0.00 dB -11.65 dB 4:27 04-Fake Plastic Trees
DR8 0.00 dB -12.09 dB 2:59 05-Bones
DR8 0.00 dB -12.75 dB 4:00 06-(Nice Dream)
DR10 0.00 dB -13.59 dB 2:58 07-Just
DR9 0.00 dB -15.10 dB 2:13 08-My Iron Lung
DR10 0.00 dB -14.28 dB 2:59 09-Bullet Proof … I Wish I Was
DR9 0.00 dB -11.47 dB 3:39 10-Black Star
DR9 0.00 dB -12.30 dB 2:46 11-Sulk
DR9 0.00 dB -13.15 dB 3:49 12-Street Spirit (Fade Out)
––––––––––––––––––––––––––––––––––––––––

Number of tracks: 12
Official DR value: DR9

Samplerate: 44100 Hz
Channels: 2
Bits per sample: 24
Bitrate: 1481 kbps
Codec: FLAC
================================================================================


Thanks to the Original customer!