Tags
Language
Tags

Salah Ragab & The Cairo Jazz Band - Egypt Strut (Record Store Day 2021 Vinyl) (1974/2021) [24bit/192kHz]

Posted By: delpotro
Salah Ragab & The Cairo Jazz Band - Egypt Strut (Record Store Day 2021 Vinyl) (1974/2021) [24bit/192kHz]

Salah Ragab & The Cairo Jazz Band - Egypt Strut (Record Store Day 2021 Vinyl) (1974/2021)
FLAC (tracks) 24-bit/192 kHz | Artwork | Time - 69:10 minutes | 2,45 GB
Jazz, Jazz-Funk, Big Band | Label: Strut Records

In 1968, while he was also the leader of the Military Music Departments in Heliopolis, Salah Ragab formed the first jazz big band in Egypt, The Cairo Jazz Band. Some of the best musicians in Egypt of that time were members – Zaki Osman (trumpet), Saied Salama (tenor sax), Khamis El-Kholy (piano) and Ala Mostafa (piano).

On these recordings The Band consists of five saxophones, four trumpets, four trombones, piano, bass, drums and percussion and various other oriental instruments. The opening concert of The Cairo Jazz Band was in Ewart Memorial Hall at The American University 23/02/1969 followed by many other concerts in various prestigious places such as the Old Opera House, The University of Alexandria and appearances on Egyptian TV Jazz Club Weekly.

Salah Ragab studied jazz theory and improvisation with the jazz musician and composer from Kansas City, USA, Osman Kareem, with whom he formed the first Jazz Quintet in Cairo in 1963 recording with the Radio Service of Cairo. He accompanied the great bandleader and composer Sun Ra on a tour in Egypt, Greece, France and Spain in 1984.

These recordings present Salah Ragab and The Cairo Jazz Band’s definitive work, recorded in Heliopolis Egypt between 1968 and 1973. Western jazz musicians have been fascinated with the world of Islam for many years, for religious, spiritual, musical and sociological reasons. It was therefore inevitable that musicians of the Arabian North African area would play a part in the interaction of these two musical cultures.

The compositions correspond to the cross-over of musical styles at the time of the recording 6000 miles away across the Mediterranean and Atlantic in New York with releases on Moodsville by Yusef Lateef and RCA by Ahmed Abdul-Malik. This record represents the Cairo Jazz Band responding to the American jazz scene in the 60’s and 70’s with influences from Mongo Santamaria to Randy Weston to Sun Ra. These tracks (apart from “Egypt Strut”) were first presented by the Ministry Of Culture in Cairo as a Prism Music Unit Production.

Tracklist:
A1 – Oriental Mood (04:45)
A2 – Dawn (08:04)
A3 – Mervat (04:17)
B1 – Ramadan In Space Time (04:20)
B2 – Kleopatra (05:04)
B3 – Neveen (07:54)
C1 – Egypt Strut (04:52)
C2 – A Tribute To Sun Ra (03:22)
C3 – Khan Al-Kaleely (04:54)
C4 – Black Butterfly (04:04)
D1 – Latino In Cairo (03:55)
D2 – Upper Egypt “The King’s Valley” (05:46)
D3 – The Crossing (02:53)
D4 – Kleopatra (Alternate Take) (04:52)

foobar2000 1.4.1 / Dynamic Range Meter 1.1.1
log date: 2021-07-12 12:21:36

––––––––––––––––––––––––––––––––––––––––
Analyzed: Salah Ragab & The Cairo Jazz Band / Egyptian Strut
––––––––––––––––––––––––––––––––––––––––

DR Peak RMS Duration Track
––––––––––––––––––––––––––––––––––––––––
DR11 -3.73 dB -15.69 dB 4:46 01-Oriental Mood
DR11 -2.96 dB -16.09 dB 8:05 02-Dawn
DR11 -2.83 dB -15.46 dB 4:18 03-Mervat
DR10 -3.83 dB -16.11 dB 4:20 04-Ramadan In Space Time
DR10 -3.27 dB -17.45 dB 5:05 05-Kleopatra
DR10 -2.98 dB -15.38 dB 7:53 06-Neveen
DR9 -3.42 dB -14.73 dB 4:54 07-Egypt Strut
DR11 -2.00 dB -15.67 dB 3:24 08-A Tribute To Sun Ra
DR10 -3.61 dB -16.69 dB 4:56 09-Khan Al-Kaleely
DR10 -4.64 dB -17.61 dB 4:06 10-Black Butterfly
DR10 -3.79 dB -14.76 dB 3:57 11-Latino In Cario
DR9 -3.89 dB -16.09 dB 5:43 12-Upper Egypt, The King's Valley
DR12 -2.74 dB -17.44 dB 2:52 13-The Crossing
DR13 -2.64 dB -19.04 dB 4:51 14-Kleopatra
––––––––––––––––––––––––––––––––––––––––

Number of tracks: 14
Official DR value: DR11

Samplerate: 192000 Hz
Channels: 2
Bits per sample: 24
Bitrate: 4908 kbps
Codec: FLAC
================================================================================


Pro-Ject RM-5SE with Audio Tecnica Signet TK7E cartridge; Speedbox power supply; Creek Audio OBH-15; Audioquest Black Mamba and Pangea Premier interconnect cables; M-Audio Audiophile 192 Soundcard ; Adobe Audition at 32-bit float 192khz; Click Repair with output monitored manually, Stereo>Mono fold-down; further clicks and pops removed manually with Adobe Audition 3.0; resampled and dithered using iZotope RX Advanced. Converted to FLAC in either Trader's Little Helper or dBPoweramp. Tags done with Foobar 2000 and Tag and Rename.

Thanks to the Original customer!