Tags
Language
Tags

Secret of Elements - Chronos (2021) [Official Digital Download]

Posted By: delpotro
Secret of Elements - Chronos (2021) [Official Digital Download]

Secret of Elements - Chronos (2021)
FLAC (tracks) 24-bit/44,1 kHz | Front Cover | Time - 57:12 minutes | 592 MB
Electronic, Ambient, Modern Classical | Label: InFiné, Official Digital Download

Chronos is the new album by Rostock´s composer Johann Pätzold aka Secret of Elements - a heartfelt, richly visual journey through which the German composer channels personal struggles alongside the social upheavals to which he has dedicated himself as a 'music activist'.

hronos charts an eventful period during which Pätzold learned to deal with mental illness, travelled to the Mediterranean to save lives during the refugee crisis, fell in love and lost love - ten years is a long time. The album tells of people, moments or phases from the musician's life. It opens with the ominous melodies and immersive choral ambience of 'Grace', which reflects on a friend's suicide attempt, before riding the euphoria of Pätzold's wedding and the birth of his children in 'A Last Waltz.'

Third track 'Memento' narrates the epic journey of a refugee Syrian mother whom Pätzold accompanied from Greece to Germany, its emotive swells and subtle crescendo evoking simultaneously the dawning of a new world and the melancholy of what has been left behind. 'Vinculum', built around an Indian mantra, also dates from the same period and was written as a last tribute to a small child who drowned in the Mediterranean. The piece combines church organ - renown as part of Christian music, and indeed recorded in the Marienkirche in Gnoien on an original 18th century Lütkemüller organ - with a mantra, seeking to unite various religious symbols in an attempt at reconciliation in the face of unimaginable tragedy.

Propelled by mechanical percussion, 'Rage' uses the Shepard scale, a musical phenomenon in which two cyclically rising octaves are played on top of each other in a staggered fashion to create the illusion of an infinitely swelling scale, perfectly mirroring the image of blind spiralling, hysterical anger. When we arrive at 'Aurora, we feel Pätzold musing about the end of the world, but also the end of the self. What remains when humanity is wiped out by a pandemic or something similar? In Johann Pätzold's case, what remains is, among other things, a monumental album, a musical chronicle of his life: Chronos.

Tracklist:
1. Grace (05:35)
2. A Last Waltz (feat. Mischa Blanos) (03:24)
3. Memento (07:12)
4. Astral (03:37)
5. Nothing Lost Yet (04:25)
6. Cassini (04:36)
7. Vinculum (08:00)
8. Liebe (04:37)
9. Rage (03:29)
10. Aurora (feat. Laure Brisa) (05:26)
11. Mein Schmerz (06:48)

foobar2000 1.4.1 / Dynamic Range Meter 1.1.1
log date: 2021-04-22 15:00:10

––––––––––––––––––––––––––––––––––––––––
Analyzed: Secret of Elements / Chronos
––––––––––––––––––––––––––––––––––––––––

DR Peak RMS Duration Track
––––––––––––––––––––––––––––––––––––––––
DR5 -0.64 dB -9.09 dB 5:35 01-Grace
DR9 -1.42 dB -14.30 dB 3:25 02-A Last Waltz
DR6 -0.86 dB -10.04 dB 7:13 03-Memento
DR7 -0.86 dB -10.95 dB 3:38 04-Astral
DR7 -0.53 dB -9.93 dB 4:26 05-Nothing Lost Yet
DR8 -0.42 dB -9.51 dB 4:36 06-Cassini
DR7 -0.42 dB -10.63 dB 8:01 07-Vinculum
DR10 -0.42 dB -12.92 dB 4:38 08-Liebe
DR7 -0.46 dB -9.44 dB 3:29 09-Rage
DR9 -0.63 dB -12.27 dB 5:26 10-Aurora
DR7 0.00 dB -10.47 dB 6:49 11-Mein Schmerz
––––––––––––––––––––––––––––––––––––––––

Number of tracks: 11
Official DR value: DR7

Samplerate: 44100 Hz
Channels: 2
Bits per sample: 24
Bitrate: 1482 kbps
Codec: FLAC
================================================================================


Thanks to the Original customer!