Sleeping Pandora - All The Way (2020) [Official Digital Download 24/96]

Posted By: delpotro
Sleeping Pandora - All The Way (2020) [Official Digital Download 24/96]

Sleeping Pandora - All The Way (2020)
FLAC (tracks) 24-bit/96 kHz | Front Cover | Time - 43:36 minutes | 837 MB
Psychedelic Rock, Space Rock | Label: Sleeping Pandora, Official Digital Download

Meeting somewhere in a place in time and space occupied by Pink Floyd and Ashra - spacey and meditative instrumentals from Berlin guitarist Mathias Rosmann.

Tracklist:
1. Aurora (10:23)
2. Goodbye Airport (09:46)
3. From Mexico To Alaska (10:33)
4. Robot Flaw (12:54)

foobar2000 1.4.1 / Dynamic Range Meter 1.1.1
log date: 2021-01-12 13:13:01

––––––––––––––––––––––––––––––––––––––––
Analyzed: Sleeping Pandora / All The Way
––––––––––––––––––––––––––––––––––––––––

DR Peak RMS Duration Track
––––––––––––––––––––––––––––––––––––––––
DR7 -0.50 dB -9.17 dB 10:23 01-Aurora
DR6 -0.50 dB -8.08 dB 9:46 02-Goodbye Airport
DR7 -0.50 dB -8.87 dB 10:33 03-From Mexico To Alaska
DR7 -0.50 dB -9.23 dB 12:54 04-Robot Flaw
––––––––––––––––––––––––––––––––––––––––

Number of tracks: 4
Official DR value: DR7

Samplerate: 96000 Hz
Channels: 2
Bits per sample: 24
Bitrate: 2842 kbps
Codec: FLAC
================================================================================


Thanks to the Original customer!