Tags
Language
Tags

The KLF - The White Room (Director's Cut) (2021) [Official Digital Download]

Posted By: delpotro
The KLF - The White Room (Director's Cut) (2021) [Official Digital Download]

The KLF - The White Room (Director's Cut) (2021)
FLAC (tracks) 24-bit/44,1 kHz | Front Cover | Time - 44:04 minutes | 525 MB
Electronic, House | Label: KLF Communications, Official Digital Download

The White Room (Director’s Cut) is the fourth entry in the Samplecity Thru Trancentral series, released on all major streaming services on 23 April 2021. It is the first chapter not explicitely announced on the original flyposter.

The Director’s Cut is meant to fill a historic gap between the scrapped movie soundtrack and the later commercial album, presenting an alternate unreleased version of The White Room completed in 1989. Since this version predates the 1991 release it does not include some of the later tracks, most notably of course the later radio versions of What Time Is Love? and 3 a.m. Eternal as they had not been recorded at that point in history. It does, however, feature the original versions of Go To Sleep and The Lover’s Side, as well as the previously promo-only Madrugada Eterna (Club Mix Edit).

Tracklist:
1. Go to Sleep (03:15)
2. Make It Rain (03:48)
3. Madrugada Eterna (Club Mix) (03:01)
4. Church of the Klf (01:42)
5. Last Train to Trancentral (Da Force, over & out) (05:49)
6. Build a Fire (04:41)
7. The White Room (03:46)
8. No More Tears (09:21)
9. The Lover's Side (03:54)
10. Justified & Ancient (Black Steel Joins the Jams) (04:43)

foobar2000 1.4.1 / Dynamic Range Meter 1.1.1
log date: 2021-04-29 01:31:38

––––––––––––––––––––––––––––––––––––––––
Analyzed: The KLF / The White Room
––––––––––––––––––––––––––––––––––––––––

DR Peak RMS Duration Track
––––––––––––––––––––––––––––––––––––––––
DR7 -0.20 dB -9.55 dB 3:15 01-Go To Sleep
DR7 -0.20 dB -8.63 dB 3:49 02-Make It Rain
DR6 -0.20 dB -8.25 dB 3:02 03-Madrugada Eterna (Club Mix)
DR8 -0.20 dB -11.37 dB 1:42 04-Church of The KLF
DR7 -0.20 dB -8.41 dB 5:49 05-Last Train To Trancentral (da Force, Over & Out)
DR6 -0.20 dB -8.98 dB 4:41 06-Build A Fire
DR7 -0.20 dB -9.64 dB 3:47 07-The White Room
DR7 -0.20 dB -8.66 dB 9:22 08-No More Tears
DR7 -0.20 dB -9.35 dB 3:54 09-The Lover's Side
DR6 -0.20 dB -8.64 dB 4:44 10-Justified & Ancient (Black Steel joins The JAMs)
––––––––––––––––––––––––––––––––––––––––

Number of tracks: 10
Official DR value: DR7

Samplerate: 44100 Hz
Channels: 2
Bits per sample: 24
Bitrate: 1562 kbps
Codec: FLAC
================================================================================


Thanks to the Original customer!